<?xml version="1.0" standalone="no"?>
<!DOCTYPE svg PUBLIC "-//W3C//DTD SVG 1.1//EN" "http://www.w3.org/Graphics/SVG/1.1/DTD/svg11.dtd" >
<svg xmlns="http://www.w3.org/2000/svg">
<metadata>Generated by IcoMoon</metadata>
<defs>
<font id="lgicons" horiz-adv-x="1024">
<font-face units-per-em="1024" ascent="1024" descent="0" />
<missing-glyph horiz-adv-x="1024" />
<glyph unicode="&#x20;" horiz-adv-x="0" d="" />
<glyph unicode="&#x21;" glyph-name="cone" d="M1015.334 282.659c-9.759-11.522-22.511-21.603-35.823-28.819-125.256-67.9-250.331-136.179-376.719-201.916-59.023-30.693-121.927-30.487-181.014 0.148-129.086 66.934-256.916 136.321-385.132 204.942-8.362 4.48-16.505 10.093-23.303 16.685-18.056 17.515-17.754 39.421 0.708 56.3 6.431 5.877 14.11 11.085 22.118 14.4 66.104 27.319 132.414 54.124 204.704 83.542-6.277-17.065-10.557-28.633-14.78-40.226-11.471-31.472-8.369-55.193 20.155-74.099 31.523-20.895 66.046-40.529 102.062-50.68 122.397-34.491 245.122-32.894 364.938 13.151 24.275 9.328 47.153 24.603 67.643 40.96 23.167 18.488 32.231 43.425 17.187 73.030-5.227 10.274-8.002 21.816-13.589 37.561 28.497-11.657 52.598-21.603 76.77-31.381 38.997-15.771 78.232-30.976 116.951-47.404 12.025-5.098 23.985-11.928 33.725-20.534 14.947-13.203 15.919-30.88 3.399-45.66 0 0 0 0 0 0M726.934 463.474c-32.019-18.687-66.162-36.859-101.811-45.498-91.93-22.279-184.117-19.588-274.097 13.267-7.602 2.781-15.314 5.652-22.311 9.65-48.704 27.802-69.471 42.002-42.589 102.731 15.829 35.765 26.625 73.777 39.737 110.752 0.734 2.073 1.996 3.953 3.367 6.618 50.712-50.584 115.2-59.158 181.722-59.429 66.684-0.264 131.229 8.195 183.435 60.24 18.662-52.933 38.817-103.968 53.513-156.547 3.218-11.529-9.27-34.96-20.966-41.784 0 0 0 0 0 0M622.097 788.277c-33.402-22.859-72.071-23.335-124.219-28.375-21.056 5.439-56.029 11.284-88.447 23.798-28.613 11.053-29.875 21.017-19.344 49.953 14.664 40.284 30.004 80.33 43.825 120.903 7.242 21.256 20.798 34.073 42.279 37.13 17.362 2.466 35.161 4.075 52.612 3.148 34.020-1.815 57.034-16.544 66.561-53.088 10.035-38.481 24.435-76.042 39.743-112.825 8.182-19.672 1.983-30.39-13.010-40.644 0 0 0 0 0 0" />
<glyph unicode="&#x22;" glyph-name="clock" d="M867.582 779.315c0 0 54.118 56.371 54.118 56.371s-57.907 60.314-57.907 60.314c0 0-57.651-60.058-57.651-60.058 21.964-17.1 42.496-35.993 61.44-56.627 0 0 0 0 0 0M594.020 930.97c0 0 0 93.030 0 93.030s-163.84 0-163.84 0c0 0 0-93.030 0-93.030 57.702 10.137 104.909 10.342 163.84 0 0 0 0 0 0 0M839.78 426.65c0 188.211-146.995 341.35-327.68 341.35s-327.68-153.139-327.68-341.35c0-188.212 146.995-341.3 327.68-341.3s327.68 153.088 327.68 341.3c0 0 0 0 0 0M921.7 426.65c0-235.623-183.398-426.65-409.6-426.65s-409.6 191.027-409.6 426.65c0 235.673 183.398 426.7 409.6 426.7s409.6-191.027 409.6-426.7c0 0 0 0 0 0M266.34 426.65c0 0 245.76 0 245.76 0s0 256 0 256c135.526 0 245.76-114.791 245.76-256 0-141.159-110.234-256-245.76-256s-245.76 114.841-245.76 256c0 0 0 0 0 0" />
<glyph unicode="&#x23;" glyph-name="price" d="M159.351 260.394c0 0-112.351-175.058-112.351-175.058s97.848 0 97.848 0c0 0 48.472-85.336 48.472-85.336s101.618 158.878 101.618 158.878c-50.995 25.768-96.786 60.165-135.587 101.516 0 0 0 0 0 0M729.971 158.878c0 0 101.618-158.878 101.618-158.878s48.472 85.336 48.472 85.336c0 0 97.848 0 97.848 0s-112.351 175.058-112.351 175.058c-38.81-41.351-84.592-75.748-135.587-101.516 0 0 0 0 0 0M808.651 597.336c0 164.958-132.598 298.664-296.196 298.664s-296.197-133.706-296.197-298.664c0-164.957 132.599-298.663 296.197-298.663s296.196 133.706 296.196 298.663c0 0 0 0 0 0M935.599 523.227c0 0-80.17-49.85-80.17-49.85s29.054-89.377 29.054-89.377c0 0-92.523-19.642-92.523-19.642s-3.351-93.882-3.351-93.882c0 0-93.631 12.958-93.631 12.958s-35.542-87.012-35.542-87.012c0 0-83.633 43.976-83.633 43.976s-63.348-69.734-63.348-69.734c0 0-63.349 69.734-63.349 69.734s-83.633-43.976-83.633-43.976c0 0-35.542 87.012-35.542 87.012s-93.631-12.958-93.631-12.958c0 0-3.351 93.882-3.351 93.882s-92.523 19.642-92.523 19.642c0 0 29.054 89.377 29.054 89.377s-80.17 49.85-80.17 49.85c0 0 58.144 74.109 58.144 74.109s-58.144 74.101-58.144 74.101c0 0 80.17 49.859 80.17 49.859s-29.054 89.368-29.054 89.368c0 0 92.523 19.651 92.523 19.651s3.351 93.873 3.351 93.873c0 0 93.631-12.958 93.631-12.958s35.542 87.021 35.542 87.021c0 0 83.633-43.976 83.633-43.976s63.349 69.725 63.349 69.725c0 0 63.348-69.725 63.348-69.725s83.633 43.976 83.633 43.976c0 0 35.542-87.021 35.542-87.021s93.631 12.958 93.631 12.958c0 0 3.351-93.873 3.351-93.873s92.523-19.651 92.523-19.651c0 0-29.054-89.368-29.054-89.368s80.17-49.859 80.17-49.859c0 0-58.144-74.101-58.144-74.101s58.144-74.109 58.144-74.109c0 0 0 0 0 0M766.341 597.336c0-141.172-113.887-256-253.886-256-140 0-253.887 114.828-253.887 256 0 141.163 113.887 256 253.887 256s253.886-114.837 253.886-256c0 0 0 0 0 0" />
<glyph unicode="&#x24;" glyph-name="instagram" d="M512 931.712c136.704 0 152.917-0.512 206.933-2.987 138.752-6.314 203.563-72.149 209.878-209.877 2.474-53.973 2.944-70.187 2.944-206.891 0-136.746-0.512-152.917-2.944-206.89-6.358-137.6-70.998-203.563-209.878-209.878-54.016-2.474-70.144-2.986-206.933-2.986-136.704 0-152.917 0.512-206.891 2.986-139.093 6.358-203.562 72.491-209.877 209.92-2.475 53.974-2.987 70.144-2.987 206.891 0 136.704 0.555 152.875 2.987 206.891 6.357 137.685 70.997 203.562 209.877 209.877 54.016 2.432 70.187 2.944 206.891 2.944 0 0 0 0 0 0M512 1024c-139.051 0-156.459-0.597-211.072-3.072-185.941-8.533-289.28-111.701-297.813-297.813-2.518-54.656-3.115-72.064-3.115-211.115s0.597-156.501 3.072-211.115c8.533-185.941 111.701-289.28 297.813-297.813 54.656-2.475 72.064-3.072 211.115-3.072s156.501 0.597 211.115 3.072c185.77 8.533 289.365 111.701 297.77 297.813 2.518 54.614 3.115 72.064 3.115 211.115s-0.597 156.459-3.072 211.072c-8.363 185.771-111.659 289.28-297.771 297.813-54.656 2.518-72.106 3.115-211.157 3.115 0 0 0 0 0 0M512 774.912c-145.195 0-262.912-117.717-262.912-262.912s117.717-262.955 262.912-262.955c145.195 0 262.912 117.718 262.912 262.955 0 145.195-117.717 262.912-262.912 262.912 0 0 0 0 0 0M512 341.333c-94.251 0-170.667 76.374-170.667 170.667 0 94.251 76.416 170.667 170.667 170.667s170.667-76.416 170.667-170.667c0-94.293-76.416-170.667-170.667-170.667 0 0 0 0 0 0M785.323 846.72c-33.963 0-61.483-27.52-61.483-61.44s27.52-61.44 61.483-61.44c33.92 0 61.397 27.52 61.397 61.44s-27.477 61.44-61.397 61.44c0 0 0 0 0 0" />
<glyph unicode="&#x25;" glyph-name="arrowlink" d="M682.685 674.053c0 0 0 161.684 0 161.684s341.315-323.369 341.315-323.369c0 0-341.315-323.368-341.315-323.368s0 161.684 0 161.684c0 0-682.685 0-682.685 0s341.315 323.369 341.315 323.369c0 0 341.37 0 341.37 0s0 0 0 0" />
<glyph unicode="&#x26;" glyph-name="usercheck" d="M772.551 121.056c0 0-150.812 147-150.812 147s62.236 62.578 62.236 62.578c0 0 88.576-84.423 88.576-84.423s189.156 194.845 189.156 194.845c0 0 62.293-62.578 62.293-62.578s-251.449-257.422-251.449-257.422c0 0 0 0 0 0M475.42 245.528c0-62.122 25.487-118.442 66.56-160.028 0 0-541.809 0-541.809 0 0 15.644-0.171 30.322-0.171 44.146 0 89.6 7.282 141.312 116.224 165.774 123.051 27.648 244.565 52.338 186.14 157.070-173.056 310.386-49.379 486.343 136.477 486.343 246.898 0 274.489-270.051 133.12-486.343-47.275-72.249-96.541-129.081-96.541-206.962 0 0 0 0 0 0" />
<glyph unicode="&#x27;" glyph-name="live" d="M938.165 242.634c-29.315-38.661-60.103-66.184-92.363-82.634 0 0-13.826 37.637-13.826 37.637 28.356 21.314 52.871 50.886 73.481 88.715 34.18 63.112 51.271 137.553 51.271 223.324 0 0-0.384 28.355-0.384 28.355-2.177 63.304-14.594 120.527-37.253 171.67s-51.719 89.099-87.115 113.998c0 0 13.826 40.709 13.826 40.709 31.3-15.554 61.447-42.245 90.571-80.010 29.060-37.829 50.95-79.818 65.608-126.032 14.722-46.213 22.019-94.476 22.019-144.658 0-105.165-28.612-195.48-85.835-271.074 0 0 0 0 0 0M512 160.32c-176.726 0-320.040 157.588-320.040 352.044s143.314 352.044 320.040 352.044c176.726 0 320.040-157.588 320.040-352.044s-143.314-352.044-320.040-352.044c0 0 0 0 0 0M67.592 538.031c0 0-0.32-28.355-0.32-28.355 0-85.771 17.091-160.212 51.271-223.324 20.61-37.829 45.125-67.401 73.481-88.715 0 0-13.826-37.637-13.826-37.637-32.26 16.45-63.048 43.973-92.363 82.634-57.223 75.594-85.835 165.909-85.835 271.074 0 50.182 7.297 98.445 21.955 144.658 14.722 46.214 36.548 88.203 65.672 126.032 29.124 37.765 59.271 64.456 90.571 80.010 0 0 13.826-40.709 13.826-40.709-35.396-24.899-64.456-62.856-87.115-113.998-22.659-51.143-35.076-108.366-37.317-171.67 0 0 0 0 0 0" />
<glyph unicode="&#x28;" glyph-name="chain" d="M555.716 944.117c0 0-124.995-124.994-124.995-124.994 54.476 4.096 109.771-4.096 161.244-24.507 0 0 56.592 56.592 56.592 56.592 55.773 55.773 146.497 55.773 202.27 0 55.705-55.705 55.705-146.43 0-202.203 0 0-183.702-183.634-183.702-183.634-55.91-55.909-146.771-55.5-202.203 0-12.97 12.902-24.097 29.013-31.060 44.782 0 0-95.777-95.776-95.777-95.776 10.035-15.223 20.548-28.467 33.928-41.915 34.679-34.679 78.778-60.483 129.568-72.703 65.808-15.769 136.258-7.031 196.809 26.351 22.119 12.151 42.871 27.647 61.576 46.352 0 0 183.703 183.702 183.703 183.702 107.108 107.109 107.108 280.776 0 387.953-107.177 107.109-280.845 107.109-387.953 0 0 0 0 0 0 0M264.017 652.419c18.773 18.773 39.526 34.201 61.644 46.42 123.151 67.856 281.117 31.744 360.305-88.267 0 0-95.776-95.845-95.776-95.845-27.511 62.736-95.709 98.371-163.633 83.148-25.531-5.666-49.834-18.432-69.631-38.297 0 0-183.702-183.635-183.702-183.635-55.705-55.773-55.705-146.497 0-202.27 55.773-55.705 146.498-55.705 202.271 0 0 0 56.592 56.66 56.592 56.66 51.472-20.48 106.699-28.603 161.243-24.507 0 0-124.994-124.995-124.994-124.995-107.109-107.108-280.845-107.108-387.953 0-107.177 107.109-107.177 280.845 0 387.953 0 0 183.634 183.635 183.634 183.635s0 0 0 0" />
<glyph unicode="&#x29;" glyph-name="bubles" d="M896 193.766c0 0 0-159.266 0-159.266s-227.533 159.266-227.533 159.266c0 0-327.134 0-327.134 0s0 159.335 0 159.335c0 0 512 0 512 0s0 238.933 0 238.933c0 0 0 79.667 0 79.667s170.667 0 170.667 0c0 0 0-477.935 0-477.935s-128 0-128 0c0 0 0 0 0 0M128 273.433c0 0 0 159.266 0 159.266s-128 0-128 0c0 0 0 557.603 0 557.603s768 0 768 0c0 0 0-557.603 0-557.603s-412.467 0-412.467 0c0 0-227.533-159.266-227.533-159.266s0 0 0 0" />
<glyph unicode="&#x2a;" glyph-name="gift" d="M304.128 953.37c38.528 0 68.378-36.045 99.917-83.866 0 0-87.168 0-87.168 0-65.127 0-62.746 83.866-12.749 83.866 0 0 0 0 0 0M283.955 810.675c89.37 0 228.045 0 228.045 0-29.798 64.947-103.347 213.325-229.094 213.325-149.581 0-147.994-213.325 1.049-213.325 0 0 0 0 0 0M707.123 869.504c0 0-87.168 0-87.168 0 31.539 47.821 61.389 83.866 99.917 83.866 49.997 0 52.378-83.866-12.749-83.866 0 0 0 0 0 0M741.069 1024c-125.747 0-199.271-148.378-229.069-213.325 0 0 228.045 0 228.045 0 149.043 0 150.63 213.325 1.024 213.325 0 0 0 0 0 0M554.675 768c0 0 0-170.675 0-170.675s469.325 0 469.325 0c0 0 0 170.675 0 170.675s-469.325 0-469.325 0c0 0 0 0 0 0M554.675 0c0 0 384 0 384 0s0 512 0 512c0 0-384 0-384 0s0-512 0-512c0 0 0 0 0 0M469.325 768c0 0-469.325 0-469.325 0s0-170.675 0-170.675c0 0 469.325 0 469.325 0s0 170.675 0 170.675c0 0 0 0 0 0M469.325 0c0 0-384 0-384 0s0 512 0 512c0 0 384 0 384 0s0-512 0-512c0 0 0 0 0 0" />
<glyph unicode="&#x2b;" glyph-name="access" d="M171.159 47c0 0 0 761.647 0 761.647s853.341 0 853.341 0c0 0 0-761.647 0-761.647s-853.341 0-853.341 0c0 0 0 0 0 0M968.413 753.118c0 0-741.167 0-741.167 0s0-653.219 0-653.219c0 0 741.167 0 741.167 0s0 653.219 0 653.219c0 0 0 0 0 0M897.71 513.781c0 0-599.761 0-599.761 0s0 187.764 0 187.764c0 0 599.761 0 599.761 0s0-187.764 0-187.764c0 0 0 0 0 0M689.256 429.161c0 0-391.307 0-391.307 0s0 42.31 0 42.31c0 0 391.307 0 391.307 0s0-42.31 0-42.31c0 0 0 0 0 0M630.749 344.519c0 0-332.8 0-332.8 0s0 42.309 0 42.309c0 0 332.8 0 332.8 0s0-42.309 0-42.309c0 0 0 0 0 0M674.641 257.246c0 0-376.692 0-376.692 0s0 42.31 0 42.31c0 0 376.692 0 376.692 0s0-42.31 0-42.31c0 0 0 0 0 0M689.256 169.973c0 0-391.307 0-391.307 0s0 42.31 0 42.31c0 0 391.307 0 391.307 0s0-42.31 0-42.31c0 0 0 0 0 0M902.597 271.791c0 0-170.682 0-170.682 0s0 199.68 0 199.68c0 0 170.682 0 170.682 0s0-199.68 0-199.68c0 0 0 0 0 0M128.5 131.62c0 0-42.659 0-42.659 0s0 761.669 0 761.669c0 0 853.318 0 853.318 0s0-42.333 0-42.333c0 0-810.659 0-810.659 0s0-719.336 0-719.336c0 0 0 0 0 0M43.159 216.263c0 0-42.659 0-42.659 0s0 761.646 0 761.646c0 0 853.341 0 853.341 0s0-42.31 0-42.31c0 0-810.682 0-810.682 0s0-719.336 0-719.336c0 0 0 0 0 0" />
<glyph unicode="&#x2c;" glyph-name="savewall" d="M426.675 341.325c0 0-426.675 0-426.675 0s0-85.325 0-85.325c0 0 426.675 0 426.675 0s0 85.325 0 85.325c0 0 0 0 0 0M426.675 554.675c0 0-426.675 0-426.675 0s0-85.35 0-85.35c0 0 426.675 0 426.675 0s0 85.35 0 85.35c0 0 0 0 0 0M426.675 768c0 0-426.675 0-426.675 0s0-85.325 0-85.325c0 0 426.675 0 426.675 0s0 85.325 0 85.325c0 0 0 0 0 0M426.675 981.325c0 0-426.675 0-426.675 0s0-85.325 0-85.325c0 0 426.675 0 426.675 0s0 85.325 0 85.325c0 0 0 0 0 0M1024 0c0 0-256 224.794-256 224.794s-256-224.794-256-224.794c0 0 0 1024 0 1024s512 0 512 0c0 0 0-1024 0-1024s0 0 0 0" />
<glyph unicode="&#x2d;" glyph-name="sharewall" d="M918.819 505.036c-6.888-20.663-15.428-40.651-25.62-59.918 71.53-53.381 96.266-136.453 19.779-226.971-0.861-31.53-2.071-44.375 5.887-78.93-38.045 12.984-41.768 16.568-71.041 34.416-90.751-21.944-181.944-29.46-259.781 36.207-23.991-6.748-48.819-11.775-74.253-15.428 64.55-79.395 183.364-122.583 323.283-88.819 39-23.712 125.12-47.68 185.644-58.593-22.618 44.212-47.656 104.876-46.399 147.203 74.858 88.726 65.829 229.925-57.499 310.833 0 0 0 0 0 0M618.619 566.003c-29.412 0-53.333 23.665-53.333 52.891 0 29.203 23.921 52.868 53.333 52.868s53.334-23.665 53.334-52.868c0-29.226-23.921-52.891-53.334-52.891 0 0 0 0 0 0M426.646 566.003c-29.413 0-53.334 23.665-53.334 52.891 0 29.203 23.921 52.868 53.334 52.868s53.31-23.665 53.31-52.868c0-29.226-23.897-52.891-53.31-52.891 0 0 0 0 0 0M234.649 566.003c-29.412 0-53.333 23.665-53.333 52.891 0 29.203 23.921 52.868 53.333 52.868s53.334-23.665 53.334-52.868c0-29.226-23.921-52.891-53.334-52.891 0 0 0 0 0 0M853.269 624.432c0 205.26-202.654 353.324-426.623 353.324-225.318 0-426.646-149.181-426.646-353.324 0-72.368 26.248-143.433 72.74-198.651 2.002-64.62-36.253-157.325-70.832-224.76 92.496 16.544 224.085 53.217 283.655 89.494 328.402-79.395 567.706 120.234 567.706 333.917 0 0 0 0 0 0" />
<glyph unicode="&#x2e;" glyph-name="users" d="M0.080 256c0 0 192.044 0 192.044 0-0.914 209.335 95.832 118.294 95.832 284.833 0 64.292-41.955 99.167-95.912 99.167-79.755 0-135.212-76.251-59.714-218.836 24.795-46.87-26.412-57.995-81.452-70.707-47.711-11.001-50.878-34.334-50.878-74.708 0-6.166 0.080-12.749 0.080-19.749 0 0 0 0 0 0M973.122 350.457c-55.040 12.712-106.247 23.837-81.459 70.707 75.505 142.585 20.048 218.836-59.707 218.836-53.957 0-95.912-34.875-95.912-99.167 0-166.539 96.746-75.498 95.832-284.833 0 0 192.044 0 192.044 0 0 7 0.080 13.583 0.080 19.749 0 40.374-3.167 63.707-50.878 74.708 0 0 0 0 0 0M767.876 256c0 0-511.796 0-511.796 0 0 9.413-0.080 18.249-0.080 26.565 0 53.709 4.25 84.729 67.752 99.394 71.834 16.582 142.665 31.393 108.581 94.252-100.959 186.207-28.753 291.789 79.623 291.789 106.291 0 180.297-101.669 79.631-291.789-33.090-62.478 35.247-77.312 108.58-94.252 63.583-14.687 67.789-45.751 67.789-99.562 0-8.25-0.080-17.042-0.080-26.397 0 0 0 0 0 0" />
<glyph unicode="&#x2f;" glyph-name="lgcom" d="M512.823 455.68c-18.809-3.88-37.241 8.3-41.067 27.163-3.935 18.809-5.013 52.224 13.797 56.104 0 0 107.789 0 107.789 0s0-53.894 0-53.894c0 0-80.519-29.373-80.519-29.373s0 0 0 0M888.901 251.904c-146.756 33.9-283.325 63.596-217.142 188.47 17.085 32.283 31.582 63.218 43.816 92.968-36.971-21.18-99.759-42.684-122.233-48.289 0 0 0 53.894 0 53.894 48.99 14.013 113.88 36.757 150.798 75.13 78.255 268.126-54.111 409.923-231.64 409.923-216.819 0-361.149-211.16-159.259-583.626 68.177-125.629-73.566-155.325-217.142-188.47-127.084-29.373-135.599-91.459-135.599-198.979 0-16.546 0.216-34.17 0.216-52.925 0 0 1023.568 0 1023.568 0 0 18.755 0.216 36.379 0.216 52.925 0 107.52-8.515 169.606-135.599 198.979 0 0 0 0 0 0" />
<glyph unicode="&#x30;" glyph-name="saved-fill" d="M835.737 0c0 0-323.369 212.938-323.369 212.938s-323.368-212.938-323.368-212.938c0 0 0 1024 0 1024s646.737 0 646.737 0c0 0 0-1024 0-1024s0 0 0 0" />
<glyph unicode="&#x31;" glyph-name="bell" d="M889.339 214.926c0 0-754.518 0-754.518 0-11.491 0-20.821 9.671-20.821 21.675 0 0 0 115.029 0 115.029 0 11.947 9.33 21.618 20.821 21.618 0 0 65.138 0 65.138 0s0 269.198 0 269.198c0 158.663 110.706 290.759 256.398 318.066-0.284 1.82-0.284 3.527-0.284 5.177 0 32.256 25.088 58.311 56.263 58.311 31.118 0 56.206-26.226 56.206-58.311 0-1.821 0-3.527-0.284-5.177 145.863-27.307 256.284-159.403 256.284-318.066 0 0 0-269.198 0-269.198s65.138 0 65.138 0c11.321 0 20.764-9.671 20.48-21.618 0 0 0-115.029 0-115.029 0-12.004-9.273-21.675-20.821-21.675 0 0 0 0 0 0M508.809 0c-66.901 0-121.060 63.545-121.060 142.222 0 0 242.063 0 242.063 0 0-78.677-54.159-142.222-121.003-142.222 0 0 0 0 0 0" />
<glyph unicode="&#x32;" glyph-name="gear" d="M512.5 341.299c-94.259 0-170.65 76.442-170.65 170.701s76.391 170.701 170.65 170.701c94.259 0 170.65-76.442 170.65-170.701s-76.391-170.701-170.65-170.701c0 0 0 0 0 0M1024.5 443.034c0 0 0 137.932 0 137.932-70.451 25.037-114.944 32.052-137.318 86.119 0 0.051 0 0.051 0 0.051-22.528 54.221 4.249 91.085 36.096 158.157 0 0-97.485 97.485-97.485 97.485-66.611-31.642-103.783-58.676-158.157-36.148 0 0.052 0 0.052-0.051 0.052-54.119 22.425-61.235 67.225-86.119 137.318 0 0-137.932 0-137.932 0-24.781-69.734-31.949-114.893-86.119-137.318-0.051 0-0.051 0-0.051-0.052-54.221-22.476-90.982 4.199-158.157 36.148 0 0-97.485-97.485-97.485-97.485 31.796-66.919 58.624-103.834 36.148-158.157-0.052 0-0.052-0.051-0.052-0.051-22.476-54.17-67.532-61.338-137.318-86.119 0 0 0-137.932 0-137.932 69.632-24.73 114.893-31.949 137.318-86.119 0 0 0-0.051 0.052-0.051 22.63-54.682-4.916-92.365-36.148-158.157 0 0 97.485-97.485 97.485-97.485 66.663 31.693 103.834 58.676 158.157 36.148 0-0.052 0.051-0.052 0.051-0.052 54.119-22.425 61.235-67.328 86.119-137.318 0 0 137.932 0 137.932 0 24.832 69.786 31.949 114.79 86.477 137.472 0.051 0 0.051 0.051 0.051 0.051 53.863 22.375 90.471-4.301 157.799-36.301 0 0 97.485 97.485 97.485 97.485-31.693 66.714-58.676 103.834-36.148 158.106 22.426 54.221 67.687 61.44 137.37 86.221 0 0 0 0 0 0" />
<glyph unicode="&#x33;" glyph-name="mail" d="M512 371.776c0 0-512 414.912-512 414.912s0-658.688 0-658.688c0 0 1024 0 1024 0s0 658.688 0 658.688c0 0-512-414.912-512-414.912s0 0 0 0M512 481.6c0 0-511.36 414.4-511.36 414.4s1022.656 0 1022.656 0c0 0-511.296-414.4-511.296-414.4s0 0 0 0" />
<glyph unicode="&#x34;" glyph-name="wrong" d="M0 853.333c0 0 170.667 170.667 170.667 170.667s341.333-341.333 341.333-341.333c0 0 341.333 341.333 341.333 341.333s170.667-170.667 170.667-170.667c0 0-341.333-341.333-341.333-341.333s341.333-341.333 341.333-341.333c0 0-170.667-170.667-170.667-170.667s-341.333 341.333-341.333 341.333c0 0-341.333-341.333-341.333-341.333s-170.667 170.667-170.667 170.667c0 0 341.333 341.333 341.333 341.333s-341.333 341.333-341.333 341.333" />
<glyph unicode="&#x35;" glyph-name="tag" d="M337.627 686.373c-33.28-33.354-87.259-33.354-120.685-0.074-33.28 33.427-33.28 87.406 0 120.759 33.426 33.353 87.405 33.28 120.685 0 33.427-33.353 33.354-87.332 0-120.685 0 0 0 0 0 0M452.462 1024c0 0-452.462 0-452.462 0s0-452.681 0-452.681c0 0 571.319-571.319 571.319-571.319s452.681 452.462 452.681 452.462c0 0-571.538 571.538-571.538 571.538s0 0 0 0" />
<glyph unicode="&#x36;" glyph-name="phone" d="M754.448 1024c0 0-484.213 0-484.213 0-46.312 0-83.735-36.166-83.735-80.803 0 0 0-862.441 0-862.441 0-44.59 37.423-80.756 83.735-80.756 0 0 484.213 0 484.213 0 46.219 0 83.688 36.166 83.688 80.756 0 0 0 862.441 0 862.441 0 44.637-37.469 80.803-83.688 80.803 0 0 0 0 0 0M392.836 974.941c0 0 239.057 0 239.057 0 6.051 0 10.892-8.704 10.892-19.409 0-10.799-4.841-19.503-10.892-19.503 0 0-239.057 0-239.057 0-6.051 0-10.892 8.704-10.892 19.503 0 10.705 4.841 19.409 10.892 19.409 0 0 0 0 0 0M512.365 79.779c-29.464 0-53.481 23.133-53.481 51.572s24.017 51.48 53.481 51.48c29.416 0 53.341-23.040 53.341-51.48s-23.925-51.572-53.341-51.572c0 0 0 0 0 0M775.393 256.372c0 0-526.103 0-526.103 0s0 631.296 0 631.296c0 0 526.103 0 526.103 0s0-631.296 0-631.296c0 0 0 0 0 0M468.286 434.455c0 0-120.413 125.859-120.413 125.859s57.391 60.044 57.391 60.044c0 0 63.022-65.815 63.022-65.815s144.85 151.412 144.85 151.412c0 0 57.437-60.044 57.437-60.044s-202.287-211.456-202.287-211.456c0 0 0 0 0 0" />
<glyph unicode="&#x37;" glyph-name="lock" d="M330.033 597.333c0 0 0 170.667 0 170.667 0 94.14 81.715 170.667 182.067 170.667s182.067-76.527 182.067-170.667c0 0 0-170.667 0-170.667s-364.134 0-364.134 0c0 0 0 0 0 0M785.167 597.333c0 0 0 170.667 0 170.667 0 141.38-122.266 256-273.067 256s-273.067-114.62-273.067-256c0 0 0-170.667 0-170.667s-136.533 0-136.533 0c0 0 0-597.333 0-597.333s819.2 0 819.2 0c0 0 0 597.333 0 597.333s-136.533 0-136.533 0c0 0 0 0 0 0" />
<glyph unicode="&#x38;" glyph-name="posta" d="M829.873 280.726c-0.992-8.992-5.536-35.458-8.416-44.322-4.801-15.105-8.321-26.721-14.369-41.826-23.425-58.051-70.308-112.742-126.727-147.080-67.267-41.090-138.365-52.195-200.96-45.826-9.697 0.992-24.706 2.848-33.89 5.344-2.528 0.64-3.136 0.512-5.537 1.12-12.736 3.264-25.569 6.496-38.050 10.881-24.673 8.736-48.482 21.857-70.787 36.097-6.817 4.353-12.097 8.961-18.657 13.857-56.291 42.306-96.869 108.486-113.862 181.674-3.68 15.969-6.049 33.698-6.561 49.058-2.144 53.699 56.195 87.909 102.534 62.18 14.113-7.873 27.233-22.978 32.642-41.571 47.618-164.072 266.212-137.863 291.909 1.857 27.073 147.847-152.478 256.845-277.541 87.172-50.914-21.601-104.965 22.721-94.501 76.676 0.384 1.984 1.152 3.36 1.632 5.344 0.64 2.145 0.768 2.625 1.76 5.249 13.505 34.338 70.692 78.436 102.182 96.293 68.035 38.818 138.567 46.562 199.786 39.202 61.114-7.265 117.565-32.962 165.439-71.684 54.147-43.81 95.717-114.758 108.838-185.418 6.176-33.729 6.56-64.547 3.136-94.277 0 0 0 0 0 0M755.565 599.143c-20.545 21.217-33.026 28.834-55.043 44.578-8.704 6.241-26.849 16.481-36.674 20.834-33.634 14.976-46.85 19.969-83.78 27.841-6.935 1.504-10.455-0.128-13.367 6.112 0 0-86.66 192.426-86.66 192.426-9.089 19.362-21.314 41.955-18.145 64.932 2.88 21.601 12.352 38.466 26.465 50.083 16.225 13.344 39.042 20.833 62.595 17.088 35.16-5.376 50.521-28.225 63.13-56.931 0 0 26.721-59.683 26.721-59.683 13.729-29.729 25.185-61.059 39.17-90.66 4.16-8.865 24.545-53.923 25.441-60.292 2.273-1.632 3.777-6.752 4.929-9.76 2.016-3.744 5.28-10.721 5.792-14.977 0 0 1.248-1.632 1.248-1.632 1.12-1.856-0.256 0.384 0.64-1.248 0.384-0.736 0.864-1.728 1.248-2.496 0 0 50.019-120.231 50.019-120.231 2.752-9.504-4.672-15.488-13.729-5.984 0 0 0 0 0 0M503.21 692.268c-15.745-0.864-31.746-2.976-47.747-6.24-4.672-0.992-9.312-2.112-13.984-3.232 0 0-48.003 45.442-48.003 45.442-15.617 14.849-31.362 30.338-47.106 44.706-12.833 11.745-37.026 32.578-43.587 46.563-7.552 16.001-7.424 33.858-1.632 47.714 12.609 30.594 48.259 47.203 80.74 38.466 4.417-1.28 6.305-6.752 8.321-10.752 8.448-16.097 18.145-33.474 27.457-49.315 18.913-32.61 36.418-65.795 54.819-98.789 10.177-18.081 20.513-36.322 30.722-54.563 0 0 0 0 0 0" />
<glyph unicode="&#x39;" glyph-name="time" d="M512 1024c-282.752 0-512-229.248-512-512s229.248-512 512-512c282.752 0 512 229.248 512 512s-229.248 512-512 512c0 0 0 0 0 0M768 426.667c0 0-298.667 0-298.667 0s0 341.333 0 341.333c0 0 85.334 0 85.334 0s0-256 0-256c0 0 213.333 0 213.333 0s0-85.333 0-85.333c0 0 0 0 0 0" />
<glyph unicode="&#x3f;" glyph-name="expand" d="M616.336 1022.79c0 0 155.572-125.922 155.572-125.922s-196.015-189.545-196.015-189.545c0 0 129.417-129.417 129.417-129.417s189.752 196.209 189.752 196.209c0 0 128.938-158.988 128.938-158.988s0 407.663 0 407.663c0 0-407.664 0-407.664 0s0 0 0 0M317.072 448.489c0 0-189.635-196.106-189.635-196.106s-127.437 157.281-127.437 157.281c0 0 0-407.664 0-407.664s407.664 0 407.664 0c0 0-157.281 127.437-157.281 127.437s196.106 189.635 196.106 189.635c0 0-129.417 129.417-129.417 129.417s0 0 0 0" />
<glyph unicode="&#x41;" glyph-name="save" d="M512.368 212.938c0 0-323.368-212.938-323.368-212.938s0 1024 0 1024c0 0 646.737 0 646.737 0s0-1024 0-1024c0 0-323.369 212.938-323.369 212.938s0 0 0 0M674.053 646.737c0 0-107.79 0-107.79 0s0 107.789 0 107.789c0 0-107.789 0-107.789 0s0-107.789 0-107.789c0 0-107.79 0-107.79 0s0-107.79 0-107.79c0 0 107.79 0 107.79 0s0-107.789 0-107.789c0 0 107.789 0 107.789 0s0 107.789 0 107.789c0 0 107.79 0 107.79 0s0 107.79 0 107.79c0 0 0 0 0 0" />
<glyph unicode="&#x42;" glyph-name="share" d="M0 60.5c129.084 595.185 625.784 702.765 625.784 702.765s0 200.764 0 200.764c0 0 398.216-399.781 398.216-399.781s-398.216-403.336-398.216-403.336c0 0 0 200.764 0 200.764s-350.991 10.361-625.784-301.176c0 0 0 0 0 0" />
<glyph unicode="&#x43;" glyph-name="caret-up" d="M512 955.836c0 0 512-886.836 512-886.836s-1024 0-1024 0c0 0 512 886.836 512 886.836s0 0 0 0" />
<glyph unicode="&#x44;" glyph-name="plus" d="M1024.449 460.828c0 0-460.777 0-460.777 0s0-460.828 0-460.828c0 0-102.395 0-102.395 0s0 460.828 0 460.828c0 0-460.777 0-460.777 0s0 102.395 0 102.395c0 0 460.777 0 460.777 0s0 460.777 0 460.777c0 0 102.395 0 102.395 0s0-460.777 0-460.777c0 0 460.777 0 460.777 0s0-102.395 0-102.395c0 0 0 0 0 0" />
<glyph unicode="&#x45;" glyph-name="logo" d="M1024 146.5c0 0-904.519 0-904.519 0s-119.481 446.811-119.481 446.811c0 0 567.33 152.306 567.33 152.306s-31.187-8.367-31.187-8.367c-19.045 60.003-82.048 94.979-143.383 78.508-61.349-16.457-98.46-78.304-85.003-139.814 0 0-56.112-15.067-56.112-15.067-21.723 92.551 33.775 186.287 126.092 211.067 92.303 24.779 187.136-28.583 214.519-119.628 0 0 251.659 67.552 251.659 67.552s180.085-673.368 180.085-673.368c0 0 0 0 0 0M330.065 370.512c0 0 20.128-81.024 20.128-81.024s-72.818-18.153-72.818-18.153c0 0-44.352 178.519-44.352 178.519s29.417 7.329 29.417 7.329c0 0-7.416 29.812-7.416 29.812s-97.32-24.268-97.32-24.268c0 0 7.416-29.812 7.416-29.812s30.792 7.68 30.792 7.68c0 0 44.367-178.52 44.367-178.52s-30.821-7.679-30.821-7.679c0 0 7.416-29.812 7.416-29.812s174.336 43.474 174.336 43.474c0 0-27.545 110.836-27.545 110.836s-33.6-8.382-33.6-8.382c0 0 0 0 0 0M635.365 442.058c-0.585 2.399-1.317 5.076-2.194 8.133 0 0-86.466-21.562-86.466-21.562s7.402-29.812 7.402-29.812c0 0 42.699 10.664 42.699 10.664 1.74-17.7-3.467-33.644-15.682-47.862-12.199-14.219-27.749-23.683-46.663-28.408-24.136-6.012-46.882-2.808-68.108 9.581-21.312 12.449-35.487 32.869-42.552 61.277-6.159 24.838-3.906 47.877 6.787 69.219 10.737 21.372 29.081 35.327 55.104 41.807 18.723 4.666 36.628 3.672 53.699-2.926 17.129-6.597 30.133-15.827 39.13-27.559 0 0 30.104 7.504 30.104 7.504s-19.441 78.216-19.441 78.216c0 0-30.104-7.504-30.104-7.504s6.583-26.491 6.583-26.491c-27.486 14.628-57.883 17.787-91.089 9.508-36.979-9.216-63.397-28.1-79.151-56.669-15.828-28.597-19.382-60.399-10.679-95.462 8.309-33.439 26.067-59.799 53.217-79.035 27.208-19.235 62.285-23.507 105.292-12.784 35.882 8.937 62.315 26.213 79.21 51.724 16.895 25.497 21.225 55.001 12.902 88.441 0 0 0 0 0 0M840.317 450.454c-3.569 14.394-10.181 26.272-19.748 35.619-9.64 9.391-19.777 15.242-30.397 17.627-10.693 2.355-27.193 3.701-49.501 3.979-17.144 0.19-28.685 0.731-34.726 1.638-6.071 0.907-11.439 3.364-16.223 7.372-4.768 3.965-7.899 9.143-9.508 15.579-2.077 8.353-0.351 16.413 5.091 24.166 5.5 7.767 14.73 13.238 27.749 16.485 21.532 5.369 40.622 0.381 57.429-14.979 0 0 4.14-16.603 4.14-16.603s29.051 7.256 29.051 7.256c0 0-17.949 72.247-17.949 72.247s-29.051-7.255-29.051-7.255c0 0 3.979-16.018 3.979-16.018-19.397 8.265-38.676 9.977-57.751 5.222-20.070-5.002-35.326-15.139-45.668-30.382-10.328-15.242-13.019-32.854-8.060-52.851 3.203-12.916 9.025-23.331 17.495-31.216 8.396-7.884 18.431-13.092 29.958-15.608 11.526-2.53 28.626-4.037 51.402-4.373 19.602-0.395 33.323-2.195 41.149-5.574 7.826-3.32 13.165-10.619 15.988-21.956 2.911-11.688 1.17-22.176-5.149-31.392s-15.345-15.315-27.135-18.255c-23.039-5.749-44.922 2.574-65.65 24.911 0 0-5.252 21.094-5.252 21.094s-29.753-7.417-29.753-7.417c0 0 21.43-86.275 21.43-86.275s29.753 7.416 29.753 7.416c0 0-4.856 19.587-4.856 19.587 21.269-11.264 42.757-14.219 64.451-8.821 21.122 5.281 37.213 16.296 48.272 33.147 11.088 16.793 14.087 35.356 9.040 55.63 0 0 0 0 0 0" />
<glyph unicode="&#x46;" glyph-name="logo-small" d="M816.953 906.971c0 0-155.969 0-155.969 0s0 63.518 0 63.518c0.029 29.403-23.728 53.306-53.131 53.511 0 0-182.536 0-182.536 0-29.403-0.205-53.131-24.108-53.101-53.511 0 0 0-63.518 0-63.518s-164.309 0-164.309 0c-74.459-0.526-134.495-61.059-134.407-135.519 0 0 0-398.072 0-398.072-0.088-74.46 59.977-134.993 134.437-135.49 0 0 102.78 0 102.78 0-29.345 43.037-56.525 87.537-81.393 133.295-116.385 240.289 15.945 469.139 283.326 477.448 267.381-8.309 397.897-240.494 281.629-480.871-24.225-44.617-50.673-87.947-79.258-129.901 0 0 101.932 0 101.932 0 74.46 0.497 134.525 61.030 134.437 135.489 0 0 0 398.102 0 398.102 0.088 74.46-59.977 135.022-134.437 135.519 0 0 0 0 0 0M616.162 906.971c0 0-199.154 0-199.154 0s0 52.839 0 52.839c0 12.025 9.714 21.796 21.738 21.884 0 0 155.678 0 155.678 0 12.024-0.088 21.738-9.859 21.738-21.884 0 0 0-52.839 0-52.839s0 0 0 0M512.65 816.508c-247.867-7.724-358.020-216.737-250.178-439.471 72.616-132.506 156.292-258.633 250.178-377.037 93.857 118.404 177.532 244.531 250.148 377.037 107.842 222.734-2.311 431.747-250.148 439.471 0 0 0 0 0 0M512.65 374.725c-115.741-0.877-189.031 123.875-131.921 224.549 57.11 100.645 201.787 101.756 260.418 1.96 13.575-23.084 20.714-49.386 20.714-76.156 0.322-82.739-66.472-150.060-149.211-150.353 0 0 0 0 0 0" />
<glyph unicode="&#x47;" glyph-name="camera" d="M768 471.072c0 113.186-95.573 204.868-213.333 204.868-117.829 0-213.334-91.682-213.334-204.868 0-113.050 95.505-204.8 213.334-204.8 117.76 0 213.333 91.75 213.333 204.8 0 0 0 0 0 0M213.333 634.98c0 22.596-19.114 40.96-42.666 40.96-23.621 0-42.667-18.364-42.667-40.96 0-22.665 19.046-40.96 42.667-40.96 23.552 0 42.666 18.295 42.666 40.96 0 0 0 0 0 0M1024 798.752c0 0 0-696.252 0-696.252s-1024 0-1024 0c0 0 0 696.252 0 696.252s252.996 0 252.996 0c28.536 0 55.16 13.721 70.998 36.522 0 0 60.006 86.426 60.006 86.426s341.333 0 341.333 0c0 0 60.007-86.426 60.007-86.426 15.838-22.801 42.462-36.522 70.997-36.522 0 0 167.663 0 167.663 0s0 0 0 0M554.667 594.020c-70.588 0-128-55.159-128-122.948 0-67.721 57.412-122.88 128-122.88 70.587 0 128 55.159 128 122.88 0 67.789-57.413 122.948-128 122.948 0 0 0 0 0 0M213.333 839.712c0 0-128 0-128 0s0 40.96 0 40.96c0 0 128 0 128 0s0-40.96 0-40.96c0 0 0 0 0 0" />
<glyph unicode="&#x48;" glyph-name="play" d="M85.5 0c0 0 0 1024 0 1024s853.333-527.019 853.333-527.019c0 0-853.333-496.981-853.333-496.981s0 0 0 0" />
<glyph unicode="&#x49;" glyph-name="arrow-next" d="M555.712 960c0 0-121.472-115.2-121.472-115.2s263.488-251.52 263.488-251.52c0 0-697.728 0-697.728 0s0-162.624 0-162.624c0 0 697.728 0 697.728 0s-263.488-251.52-263.488-251.52c0 0 121.472-115.136 121.472-115.136s468.288 448 468.288 448c0 0-468.288 448-468.288 448s0 0 0 0" />
<glyph unicode="&#x4a;" glyph-name="fire" d="M434.233 1024c0 0 51.492-196.974-127.123-384-105.252-95.451-180.809-155.867-190.61-256 0-236.398 98.158-384 317.733-384 0 0-125.952 174.153 0 320.073 59.318 59.685 143.286 133.632 127.122 192 1.828-7.095 40.521 29.769 127.122-128.073 53.175-98.158-93.915-198.949-127.122-384 0 0 350.647 81.262 345.892 383.927 13.824 338.944-358.107 581.998-473.014 640.073 0 0 0 0 0 0" />
<glyph unicode="&#x4b;" glyph-name="menu" d="M0 77c0 0 0 153.6 0 153.6s1024 0 1024 0c0 0 0-153.6 0-153.6s-1024 0-1024 0c0 0 0 0 0 0M0 589c0 0 1024 0 1024 0s0-153.6 0-153.6c0 0-1024 0-1024 0s0 153.6 0 153.6c0 0 0 0 0 0M0 947.4c0 0 1024 0 1024 0s0-153.6 0-153.6c0 0-1024 0-1024 0s0 153.6 0 153.6c0 0 0 0 0 0" />
<glyph unicode="&#x4c;" glyph-name="caret-right" d="M801.247 506.785c0 0-507.561-506.785-507.561-506.785s-60.945 60.945-60.945 60.945c0 0 443.684 443.598 443.684 443.598s-453.425 458.426-453.425 458.426c0 0 60.945 61.031 60.945 61.031s517.302-517.215 517.302-517.215c0 0 0 0 0 0" />
<glyph unicode="&#x4d;" glyph-name="caret-down" d="M512 69c0 0-512 886.836-512 886.836s1024 0 1024 0c0 0-512-886.836-512-886.836s0 0 0 0" />
<glyph unicode="&#x4e;" glyph-name="arrow-prev" d="M409.714 910.444c0 0 106.325-102.4 106.325-102.4s-230.571-223.573-230.571-223.573c0 0 738.532 0 738.532 0s0-144.498 0-144.498c0 0-738.532 0-738.532 0s230.571-223.63 230.571-223.63c0 0-106.325-102.343-106.325-102.343s-409.714 398.222-409.714 398.222c0 0 409.714 398.222 409.714 398.222s0 0 0 0" />
<glyph unicode="&#x4f;" glyph-name="car" d="M1023.97 468.537c0 18.604-4.546 36.366-12.764 52.592-0.843 4.154-1.807 8.248-3.011 12.433 0 0-88.928 203.445-88.928 203.445s-0.602 1.837-0.602 1.837c-31.128 85.496-75.412 164.671-187.701 164.671 0 0-429.318 0-429.318 0-115.059 0-155.7-81.132-187.52-164.22 0 0-93.023-203.927-93.023-203.927-13.456-19.869-21.103-42.628-21.103-66.831 0 0 0-63.31 0-63.31 0-9.754 1.264-19.327 3.643-28.569-2.318-5.539-3.643-11.56-3.643-17.882 0 0 0-188.273 0-188.273 0-27.635 24.264-50.003 54.158-50.003 0 0 112.409 0 112.409 0 29.924 0 54.158 22.368 54.158 50.003 0 0 0 94.137 0 94.137s588.962 0 588.962 0c0 0 0-94.137 0-94.137 0-27.635 24.234-50.003 54.158-50.003 0 0 105.997 0 105.997 0 29.894 0 54.158 22.368 54.158 50.003 0 0 0 188.273 0 188.273 0 6.322-1.325 12.343-3.643 17.912 2.409 9.212 3.643 18.785 3.643 28.569 0 0 0 63.28 0 63.28s-0.030 0-0.030 0c0 0 0 0 0 0M180.145 718.884c35.432 92.21 63.911 120.358 121.501 120.358 0 0 429.288 0 429.288 0 57.198 0 89.019-31.399 121.381-119.966 0 0 64.875-121.381 64.875-121.381-21.164 7.225-44.495 11.259-68.999 11.259 0 0-672.382 0-672.382 0-22.066 0-43.169-3.281-62.617-9.212 0 0 66.953 118.942 66.953 118.942s0 0 0 0M235.898 381.204c0 0-118.581 0-118.581 0-21.374 0-38.684 16.015-38.684 35.704 0 19.718 17.31 35.703 38.684 35.703 0 0 118.581 0 118.581 0 21.374 0 38.684-15.985 38.684-35.703 0-19.689-17.31-35.704-38.684-35.704 0 0 0 0 0 0M654.89 388.369c0 0-275.876 0-275.876 0-13.517 0-24.505 10.115-24.505 22.578 0 12.493 10.988 22.608 24.505 22.608 0 0 275.876 0 275.876 0 13.517 0 24.475-10.115 24.475-22.608 0-12.463-10.958-22.578-24.475-22.578 0 0 0 0 0 0M903.673 381.204c0 0-118.581 0-118.581 0-21.374 0-38.684 16.015-38.684 35.704 0 19.718 17.34 35.703 38.684 35.703 0 0 118.581 0 118.581 0 21.404 0 38.714-15.985 38.714-35.703 0-19.689-17.31-35.704-38.714-35.704 0 0 0 0 0 0" />
<glyph unicode="&#x50;" glyph-name="card" d="M1006.487 319.591c0 0-824.375-216.294-824.375-216.294-12.635-3.334-25.68 4.095-29.102 16.613 0 0-101.318 370.26-101.318 370.26s870.179 228.345 870.179 228.345c0 0 101.288-370.289 101.288-370.289 3.451-12.519-4.036-25.329-16.672-28.635 0 0 0 0 0 0M881.069 498.886c0 0-274.88-72.127-274.88-72.127s19.831-72.537 19.831-72.537c0 0 274.909 72.127 274.909 72.127s-19.86 72.537-19.86 72.537c0 0 0 0 0 0M0.829 676.075c-3.422 12.518 4.065 25.388 16.701 28.693 0 0 824.375 216.323 824.375 216.323 12.606 3.305 25.651-4.182 29.073-16.672 0 0 28.547-104.301 28.547-104.301s-870.179-228.315-870.179-228.315c0 0-28.517 104.272-28.517 104.272s0 0 0 0" />
<glyph unicode="&#x51;" glyph-name="cine" d="M384.528 1021.666c-212.097 0-384.028-171.36-384.028-382.821 0-211.43 171.931-382.822 384.028-382.822s383.996 171.392 383.996 382.822c0 211.461-171.9 382.821-383.996 382.821 0 0 0 0 0 0M384.528 947.21c59.311 0 86.902-14.701 86.902-61.311s-68.772-90.459-86.902-90.459c-18.225 0-86.998 43.848-86.998 90.459s27.687 61.311 86.998 61.311c0 0 0 0 0 0M128.139 626.144c-44.515 14.383-50.040 45.087-31.783 101.254 18.32 56.294 40.8 78.044 85.347 63.692 44.388-14.383 65.153-93.125 59.469-110.334-5.524-17.241-68.55-68.963-113.033-54.612 0 0 0 0 0 0M313.914 389.25c-25.719-39.022-56.835-36.386-106.588-4.127-49.532 32.29-64.677 59.628-39.181 98.65 25.528 39.117 107.096 38.355 122.336 28.481 15.273-9.907 48.802-84.204 23.433-123.004 0 0 0 0 0 0M384.528 581.439c-31.815 0-57.596 25.686-57.596 57.406 0 31.751 25.75 57.437 57.596 57.437s57.596-25.686 57.596-57.437c0-31.72-25.75-57.406-57.596-57.406 0 0 0 0 0 0M565.032 390.298c-48.261-34.164-79.377-38.26-106.397-0.222-27.148 38.006 3.556 113.446 18.225 123.86 14.859 10.605 96.459 14.415 123.447-23.305 27.084-38.133 13.145-66.074-35.275-100.333 0 0 0 0 0 0M640.726 626.144c-44.451-14.319-107.477 37.371-113.001 54.612-5.716 17.241 15.081 95.951 59.437 110.334 44.579 14.32 67.058-7.398 85.315-63.692 18.257-56.104 12.764-86.871-31.751-101.254 0 0 0 0 0 0M995.321 83.711c0 0-26.861-80.711-26.861-80.711-6.446 2.096-157.263 53.437-157.263 189.712 0 160.946 127.956 198.824 127.956 341.418 0 64.867-60.58 133.83-137.735 194.76-11.716 54.231-33.72 104.683-64.074 149.103 133.164-81.505 287.156-205.588 287.156-343.863 0-88.49-37.72-144.245-71.027-193.459-30.608-45.213-56.961-84.203-56.961-147.991 0.032-74.297 97.761-108.62 98.809-108.969 0 0 0 0 0 0" />
<glyph unicode="&#x52;" glyph-name="clas" d="M916.873 681.014c-88.725 209.595-231.464 369.229-303.689 339.39-122.649-50.62 73.049-293.743-529.193-542.366-52.004-21.474-65.211-107.4-43.441-158.811 21.737-51.345 92.908-102.492 144.945-81.019 8.991 3.689 42.058 14.491 42.058 14.491 37.15-50.62 76.046-20.584 89.812-52.761 16.566-38.665 52.63-122.714 64.881-151.334 12.285-28.555 40.049-55.001 60.238-47.229 20.090 7.773 88.627 34.252 114.843 44.363 26.183 10.144 32.44 33.857 24.437 52.564-8.662 20.156-44.066 26.084-54.144 49.632-10.111 23.516-43.112 98.936-52.597 122.682-12.91 32.341 14.524 58.623 54.342 62.839 274.115 29.015 325.361-142.903 418.665-104.37 72.225 29.839 57.503 242.3-31.157 451.929 0 0 0 0 0 0M885.981 340.997c-16.039-6.62-123.933 79.767-192.865 242.728-68.932 162.927-60.27 311.857-44.231 318.444 16.006 6.62 121.232-97.618 190.164-260.512 68.932-162.928 62.971-294.040 46.932-300.66 0 0 0 0 0 0" />
<glyph unicode="&#x53;" glyph-name="cross" d="M898.926 512c0 0-257.642 0-257.642 0s0-512 0-512c0 0-257.642 0-257.642 0s0 512 0 512c0 0-257.642 0-257.642 0s0 256.559 0 256.559c0 0 257.642 0 257.642 0s0 255.441 0 255.441c0 0 257.642 0 257.642 0s0-255.441 0-255.441c0 0 257.642 0 257.642 0s0-256.559 0-256.559c0 0 0 0 0 0" />
<glyph unicode="&#x54;" glyph-name="house" d="M802.205 892.667c0 0 100.901 0 100.901 0s0-213.102 0-213.102c0 0-100.466 87.52-100.466 87.52s-0.435 125.582-0.435 125.582c0 0 0 0 0 0M912.606 509.587c0 0-392.177 361.037-392.177 361.037s-418.318-363.304-418.318-363.304c-69.978-60.726-102.111 0-102.111 0s520.429 470.569 520.429 470.569c0 0 503.571-468.302 503.571-468.302s-30.394-60.013-111.394 0c0 0 0 0 0 0M873.332 477.050c0 0 0-400.311 0-400.311s1.304-29.246-27.072-29.246c-34.306 0-252.686 0-252.686 0s0.466 216.455 0.466 216.455c0 0 2.484 35.797-37.535 35.797 0 0-107.11 0-107.11 0-33.871 0-30.208-35.797-30.208-35.797s-0.404-217.138-0.404-217.138c0 0-230.27-0.31-258.087-0.31-22.354 0-21.484 23.471-21.484 23.471s0 407.079 0 407.079c0 0 378.050 325.21 378.050 325.21s356.070-325.21 356.070-325.21c0 0 0 0 0 0" />
<glyph unicode="&#x55;" glyph-name="envelope" d="M512 371.776c0 0-512 414.912-512 414.912s0-658.688 0-658.688c0 0 1024 0 1024 0s0 658.688 0 658.688c0 0-512-414.912-512-414.912s0 0 0 0M512 481.6c0 0-511.36 414.4-511.36 414.4s1022.72 0 1022.72 0c0 0-511.36-414.4-511.36-414.4s0 0 0 0" />
<glyph unicode="&#x56;" glyph-name="face" d="M386.020 682.667c0 0-126.020 0-126.020 0s0-170.667 0-170.667c0 0 126.020 0 126.020 0s0-512 0-512c0 0 209.989 0 209.989 0s0 512 0 512c0 0 152.917 0 152.917 0s15.087 170.667 15.087 170.667c0 0-168.004 0-168.004 0s0 37.205 0 71.134c0 40.755 8.055 56.866 46.83 56.866 31.267 0 121.174 0 121.174 0s0 213.333 0 213.333c0 0-135.168 0-159.949 0-151.074 0-218.044-67.516-218.044-196.881 0-112.708 0-144.452 0-144.452s0 0 0 0" />
<glyph unicode="&#x57;" glyph-name="goo" d="M902.090 753.011c0 0 0 118.568 0 118.568s-81.273 0-81.273 0c0 0 0-118.568 0-118.568s-121.91 0-121.91 0c0 0 0-79.064 0-79.064s121.91 0 121.91 0c0 0 0-118.568 0-118.568s81.273 0 81.273 0c0 0 0 118.568 0 118.568s121.91 0 121.91 0c0 0 0 79.064 0 79.064s-121.91 0-121.91 0c0 0 0 0 0 0M373.059 566.158c0 0 0-129.347 0-129.347s211.537 0 211.537 0c-8.515-55.512-63.919-162.763-211.537-162.763-127.407 0-231.316 106.712-231.316 238.215s103.909 238.215 231.316 238.215c72.435 0 120.94-31.259 148.642-58.206 0 0 101.268 98.627 101.268 98.627-64.997 61.44-149.18 98.627-249.91 98.627-206.255 0-373.059-168.69-373.059-377.263s166.804-377.263 373.059-377.263c215.256 0 358.131 153.061 358.131 368.64 0 24.792-2.695 43.655-5.929 62.518 0 0-352.202 0-352.202 0s0 0 0 0" />
<glyph unicode="&#x58;" glyph-name="tw" d="M1024 834.812c-37.637-16.977-78.145-28.462-120.65-33.58 43.379 26.402 76.709 68.221 92.375 118.029-40.57-24.467-85.572-42.194-133.445-51.743-38.261 41.444-92.876 67.347-153.295 67.347-135.63 0-235.309-128.515-204.725-262.023-174.578 8.863-329.37 93.874-432.981 223.013-55.051-95.934-28.524-221.453 64.976-284.993-34.392 1.124-66.786 10.736-95.123 26.715-2.247-98.868 67.472-191.368 168.524-211.966-29.585-8.176-61.979-10.049-94.873-3.62 26.715-84.824 104.298-146.491 196.237-148.238-88.319-70.343-199.545-101.739-311.020-88.382 92.938-60.543 203.414-95.871 322.068-95.871 390.038 0 610.367 334.676 597.073 634.835 41.070 30.085 76.709 67.659 104.859 110.477 0 0 0 0 0 0" />
<glyph unicode="&#x59;" glyph-name="you" d="M383.975 330.157c0 0 0 364.264 0 364.264s341.399-181.804 341.399-181.804c0 0-341.399-182.46-341.399-182.46s0 0 0 0M836.94 913.676c-153.813 11.235-496.264 11.17-649.88 0-166.232-12.090-185.812-119.253-187.060-401.387 1.248-281.608 20.631-389.297 187.060-401.387 153.616-11.17 496.067-11.235 649.88 0 166.232 12.090 185.812 119.253 187.060 401.387-1.248 281.608-20.631 389.297-187.060 401.387 0 0 0 0 0 0" />
<glyph unicode="&#x5a;" glyph-name="user" d="M1023.675 5.5c-341.165 0.6-682.45 1.14-1023.675 1.681 0 104.858-0.42 184.207 64.884 223.401 86.311 51.859 263.196 31.512 301.97 128.627 20.348 50.959-56.42 165.001-73.347 208.097-9.663 33.852-19.387 67.704-29.050 101.557-34.633 155.037 28.15 283.544 133.129 328.32 31.571 13.445 60.922 13.805 102.337 20.287 54.14 8.403 115.722-11.944 150.115-32.171 142.372-83.671 135.71-288.346 68.245-446.744-19.327-45.377-89.193-139.251-52.879-194.591 52.939-80.79 239.967-68.125 317.336-130.308 45.796-36.793 41.415-125.566 40.935-208.156 0 0 0 0 0 0" />
<glyph unicode="&#x5b;" glyph-name="lgdig" d="M982.429 180c0 0-222.737 0-222.737 0-22.98 0-41.571 18.352-41.571 40.973 0 0 0 410.047 0 410.047 0 22.66 18.591 41.012 41.571 41.012 0 0 222.737 0 222.737 0 22.94 0 41.571-18.352 41.571-41.012 0 0 0-410.047 0-410.047 0-22.621-18.631-40.973-41.571-40.973 0 0 0 0 0 0M871.040 220.973c11.49 0 20.786 9.216 20.786 20.506 0 11.33-9.296 20.506-20.786 20.506s-20.785-9.176-20.785-20.506c0-11.29 9.295-20.506 20.785-20.506 0 0 0 0 0 0M902.239 631.020c0 0-62.357 0-62.357 0-5.745 0-10.373-4.588-10.373-10.254s4.628-10.253 10.373-10.253c0 0 62.357 0 62.357 0 5.705 0 10.373 4.588 10.373 10.253 0 5.666-4.668 10.254-10.373 10.254 0 0 0 0 0 0M982.429 570.019c0 0-222.737 0-222.737 0s0-287.527 0-287.527c0 0 222.737 0 222.737 0s0 287.527 0 287.527c0 0 0 0 0 0M831.145 761.797c0 0-664.9 0-664.9 0s0-374.021 0-374.021c0 0 499.533 0 499.533 0s0-83.102 0-83.102c0 0-582.675 0-582.675 0s0 490.356 0 490.356c0 27.568 22.341 49.87 49.869 49.87 0 0 731.406 0 731.406 0 27.568 0 49.909-22.302 49.909-49.87 0 0 0-83.541 0-83.541s-83.142 0-83.142 0c0 0 0 50.308 0 50.308s0 0 0 0M436.338 242.317c0 0 124.674 0 124.674 0 11.49 0 20.785 9.296 20.785 20.786 0 0 83.981 0 83.981 0s0-83.103 0-83.103c0 0-615.909 0-615.909 0-27.567 0-49.869 22.302-49.869 49.869 0 0 0 33.234 0 33.234s415.592 0 415.592 0c0-11.49 9.296-20.786 20.746-20.786 0 0 0 0 0 0" />
<glyph unicode="&#x5c;" glyph-name="lgimp" d="M937.743 114c0 0-851.581 0-851.581 0-47.549 0-86.162 36.032-86.162 80.427 0 0 0 636.392 0 636.392s85.301 0 85.301 0c0 0 0-605.282 0-605.282 0-30.68 42.675-30.728 42.675 0 0 0 0 684.945 0 684.945s896.024 0 896.024 0c0 0 0-716.055 0-716.055 0-44.395-38.613-80.427-86.257-80.427 0 0 0 0 0 0M938.651 830.819c0 0-725.326 0-725.326 0s0-557.542 0-557.542c0 0 725.326 0 725.326 0s0 557.542 0 557.542c0 0 0 0 0 0M853.349 591.879c0 0-554.674 0-554.674 0s0 39.808 0 39.808c0 0 554.674 0 554.674 0s0-39.808 0-39.808c0 0 0 0 0 0M580.241 512.217c0 0-281.566 0-281.566 0s0 39.807 0 39.807c0 0 281.566 0 281.566 0s0-39.807 0-39.807c0 0 0 0 0 0M580.241 432.602c0 0-281.566 0-281.566 0s0 39.808 0 39.808c0 0 281.566 0 281.566 0s0-39.808 0-39.808c0 0 0 0 0 0M580.289 352.94c0 0-281.614 0-281.614 0s0 39.807 0 39.807c0 0 281.614 0 281.614 0s0-39.807 0-39.807c0 0 0 0 0 0M853.349 352.94c0 0-230.433 0-230.433 0s0 199.084 0 199.084c0 0 230.433 0 230.433 0s0-199.084 0-199.084c0 0 0 0 0 0M597.11 751.157c0 0 256.861 0 256.861 0s0-64.227 0-64.227c0 0-256.861 0-256.861 0s0 64.227 0 64.227c0 0 0 0 0 0M307.42 751.157c0 0 255.331 0 255.331 0s0-64.227 0-64.227c0 0-255.331 0-255.331 0s0 64.227 0 64.227c0 0 0 0 0 0" />
<glyph unicode="&#x5d;" glyph-name="lglocation" d="M512.368 554.685c-66.991 0-121.263 57.29-121.263 128s54.272 128 121.263 128c66.992 0 121.264-57.29 121.264-128s-54.272-128-121.264-128c0 0 0 0 0 0M512.368 1024c-169.714 0-323.368-145.192-323.368-324.339s140.18-393 323.368-699.661c183.135 306.661 323.369 520.515 323.369 699.661 0 179.147-153.654 324.339-323.369 324.339 0 0 0 0 0 0" />
<glyph unicode="&#x5e;" glyph-name="lgtv" d="M384.043 299.124c0 0 0 426.524 0 426.524s383.985-219.469 383.985-219.469c0 0-383.985-207.055-383.985-207.055s0 0 0 0M512 1024.272c-282.736 0-512-229.207-512-511.886s229.264-511.886 512-511.886c282.793 0 512 229.207 512 511.886s-229.207 511.886-512 511.886c0 0 0 0 0 0M512 938.967c235.3 0 426.695-191.395 426.695-426.581s-191.395-426.581-426.695-426.581c-235.243 0-426.638 191.395-426.638 426.581s191.395 426.581 426.638 426.581c0 0 0 0 0 0" />
<glyph unicode="&#x5f;" glyph-name="rss" d="M0 818.688c451.438-1.975 817.152-366.665 818.469-818.688 0 0 205.531 0 205.531 0-1.317 564.517-458.898 1022.025-1024 1024 0 0 0-205.312 0-205.312s0 0 0 0M0 674.962c0 0 0-205.239 0-205.239 258.121-2.633 467.675-211.894 470.309-469.723 0 0 205.531 0 205.531 0-2.706 371.639-303.762 672.329-675.84 674.962 0 0 0 0 0 0M277.431 138.533c0-76.508-62.098-138.533-138.679-138.533-76.654 0-138.752 62.025-138.752 138.533 0 76.58 62.098 138.605 138.752 138.605 76.581 0 138.679-62.025 138.679-138.605 0 0 0 0 0 0" />
<glyph unicode="&#x60;" glyph-name="time-empty" d="M554.667 512c0 0 0 256 0 256s-85.334 0-85.334 0c0 0 0-341.333 0-341.333s298.667 0 298.667 0c0 0 0 85.333 0 85.333s-213.333 0-213.333 0c0 0 0 0 0 0M512 1024c-282.761 0-512-229.239-512-512s229.239-512 512-512c282.761 0 512 229.239 512 512s-229.239 512-512 512c0 0 0 0 0 0M512 938.667c235.247 0 426.667-191.386 426.667-426.667s-191.42-426.667-426.667-426.667c-235.247 0-426.667 191.386-426.667 426.667s191.42 426.667 426.667 426.667c0 0 0 0 0 0" />
<glyph unicode="&#x61;" glyph-name="search" d="M116.696 899.231c77.433 75.743 178.965 113.551 280.435 113.551 101.533 0 203.065-37.808 280.498-113.551 130.515-127.51 150.609-321.624 61.22-470.23 0 0 255.146-209.512 255.146-209.512 38.497-31.549 40.876-85.32 5.321-119.999 0 0-64.288-62.848-64.288-62.848-35.555-34.804-90.578-32.425-122.878 5.133 0 0-214.332 249.387-214.332 249.387-61.846-35.492-131.141-53.645-200.687-53.645-101.47 0-203.002 37.746-280.435 113.488-154.928 151.36-154.928 396.866 0 548.226 0 0 0 0 0 0M245.396 476.763c40.563-39.624 94.459-61.47 151.735-61.47 57.339 0 111.298 21.846 151.798 61.47 83.755 81.814 83.755 214.896 0 296.71-40.5 39.624-94.459 61.471-151.798 61.471-57.276 0-111.235-21.847-151.735-61.471-83.755-81.814-83.755-214.896 0-296.71 0 0 0 0 0 0" />
<glyph unicode="&#x62;" glyph-name="check" d="M512 1024c-282.752 0-512-229.248-512-512s229.248-512 512-512c282.752 0 512 229.248 512 512s-229.248 512-512 512c0 0 0 0 0 0M445.184 243.541c0 0-232.405 225.408-232.405 225.408s95.914 95.958 95.914 95.958c0 0 136.491-129.451 136.491-129.451s291.456 298.752 291.456 298.752c0 0 95.915-95.915 95.915-95.915s-387.371-394.752-387.371-394.752c0 0 0 0 0 0" />
<glyph unicode="&#x63;" glyph-name="untitled28" d="M2.304 64c41.408 77.824 87.36 184.768 85.056 259.328-55.872 63.616-87.36 145.664-87.36 229.12 0 235.392 241.536 407.552 512 407.552 268.736 0 512-170.88 512-407.552 0-246.528-287.232-476.736-681.344-385.216-71.552-41.792-229.376-84.096-340.352-103.232 0 0 0 0 0 0" />
<glyph unicode="&#x64;" glyph-name="arrow-left" d="M789.999 50.959c0 0-50.959-50.959-50.959-50.959s-504.54 504.54-504.54 504.54c0 0 7.46 7.46 7.46 7.46s-7.46 7.496-7.46 7.496c0 0 504.54 504.504 504.54 504.504s50.959-50.959 50.959-50.959c0 0-461.042-461.041-461.042-461.041s461.042-461.041 461.042-461.041c0 0 0 0 0 0" />
<glyph unicode="&#x65;" glyph-name="arrow-right" d="M789.999 504.54c0 0-504.54-504.54-504.54-504.54s-50.959 50.959-50.959 50.959c0 0 461.041 461.041 461.041 461.041s-461.041 461.041-461.041 461.041c0 0 50.959 50.959 50.959 50.959s504.54-504.504 504.54-504.504c0 0-7.46-7.496-7.46-7.496s7.46-7.46 7.46-7.46c0 0 0 0 0 0" />
<glyph unicode="&#x66;" glyph-name="refresh" d="M830.421 724.011c0 0-190.421-212.011-190.421-212.011s128 0 128 0c0-141.141-114.816-256-256-256-69.248 0-132.011 27.733-178.133 72.491 0 0-85.504-95.147-85.504-95.147 68.821-65.152 161.45-105.344 263.637-105.344 212.053 0 384 171.947 384 384 0 0 128 0 128 0s-193.579 212.011-193.579 212.011c0 0 0 0 0 0M384 512c0 0-190.421-212.011-190.421-212.011s-193.579 212.011-193.579 212.011c0 0 128 0 128 0 0 212.053 171.947 384 384 384 102.144 0 194.773-40.235 263.637-105.301 0 0-85.504-95.19-85.504-95.19-46.122 44.8-108.928 72.491-178.133 72.491-141.184 0-256-114.859-256-256 0 0 128 0 128 0s0 0 0 0" />
<glyph unicode="&#x67;" glyph-name="like" d="M938.667 168.073c0 0-78.439-79.053-78.439-79.053s-296.687 0-296.687 0c0 0-106.974 89.088-106.974 89.088s-115.234 0-115.234 0c0 0 0 311.637 0 311.637 161.314 0 286.993 252.587 349.389 445.235 0 0 77.278 0 77.278 0s0-35.225 0-35.225c0 0-42.667-137.762-42.667-137.762s0-183.228 0-183.228c0 0 154.556 0 154.556 0s58.778-39.936 58.778-39.936c0 0 0-370.756 0-370.756s0 0 0 0M905.216 667.853c0 0-94.549 0-94.549 0s0 77.892 0 77.892c0 0 42.666 137.83 42.666 137.83s0 140.425 0 140.425c0 0-223.846 0-223.846 0-92.092-283.58-181.385-444.894-288.154-445.167 0 0 0 44.51 0 44.51s-341.333 0-341.333 0c0 0 0-578.833 0-578.833s341.333 0 341.333 0c0 0 0 44.51 0 44.51s0.342 0 0.342 0c0 0 84.992 0 84.992 0s106.974-89.020 106.974-89.020c0 0 360.994 0 360.994 0s129.365 130.253 129.365 130.253c0 0 0 456.84 0 456.84s-118.784 80.76-118.784 80.76c0 0 0 0 0 0" />
<glyph unicode="&#x68;" glyph-name="unlike" d="M939.167 856.427c0 0-78.439 79.053-78.439 79.053s-296.687 0-296.687 0c0 0-106.974-89.088-106.974-89.088s-115.234 0-115.234 0c0 0 0-311.637 0-311.637 161.314 0 286.993-252.587 349.389-445.167 0 0 77.278 0 77.278 0s0 35.157 0 35.157c0 0-42.667 137.831-42.667 137.831s0 183.159 0 183.159c0 0 154.556 0 154.556 0s58.778 39.936 58.778 39.936c0 0 0 370.756 0 370.756s0 0 0 0M905.716 356.715c0 0-94.549 0-94.549 0s0-77.96 0-77.96c0 0 42.666-137.762 42.666-137.762s0-140.493 0-140.493c0 0-223.846 0-223.846 0-92.092 283.58-181.385 444.894-288.154 445.235 0 0 0-44.51 0-44.51s-341.333 0-341.333 0c0 0 0 578.765 0 578.765s341.333 0 341.333 0c0 0 0-44.51 0-44.51s0.273 0 0.273 0c0 0 85.061 0 85.061 0s106.974 89.020 106.974 89.020c0 0 360.994 0 360.994 0s129.365-130.253 129.365-130.253c0 0 0-456.84 0-456.84s-118.784-80.692-118.784-80.692c0 0 0 0 0 0" />
<glyph unicode="&#x69;" glyph-name="flag" d="M512 1024c-282.752 0-512-229.248-512-512s229.248-512 512-512c282.752 0 512 229.248 512 512s-229.248 512-512 512c0 0 0 0 0 0M896 512c0-82.773-26.624-159.36-71.339-222.165 0 0-534.826 534.826-534.826 534.826 62.805 44.715 139.392 71.339 222.165 71.339 211.712 0 384-172.288 384-384 0 0 0 0 0 0M128 512c0 82.773 26.624 159.36 71.339 222.165 0 0 534.784-534.784 534.784-534.784-62.763-44.757-139.35-71.381-222.123-71.381-211.712 0-384 172.288-384 384 0 0 0 0 0 0" />
<glyph unicode="&#x6a;" glyph-name="answer" d="M1024 146.83c0 0-113.81 523.63-613.010 523.63 0 0 0 207.798 0 207.798s-410.99-347.062-410.99-347.062c0 0 410.99-359.936 410.99-359.936s0 234.422 0 234.422c167.204 0 395.191-71.46 527.652-258.852 43.74 0.731 33.865-1.024 85.358 0 0 0 0 0 0 0" />
<glyph unicode="&#x6b;" glyph-name="arrow-down" d="M1024 735.927c0 0-504.515-497.927-504.515-497.927s-7.467 7.394-7.467 7.394c0 0-7.466-7.394-7.466-7.394s-504.552 497.927-504.552 497.927c0 0 50.986 50.29 50.986 50.29s461.032-454.993 461.032-454.993c0 0 461.033 454.993 461.033 454.993s50.949-50.29 50.949-50.29c0 0 0 0 0 0" />
<glyph unicode="&#x6c;" glyph-name="close" d="M1024 110.6c0 0-64.6-64.6-64.6-64.6s-447.4 406.74-447.4 406.74c0 0-447.4-406.74-447.4-406.74s-64.6 64.6-64.6 64.6c0 0 441.872 401.714 441.872 401.714s-441.872 401.715-441.872 401.715c0 0 64.6 64.6 64.6 64.6s447.4-406.741 447.4-406.741c0 0 447.4 406.741 447.4 406.741s64.6-64.6 64.6-64.6c0 0-441.872-401.715-441.872-401.715s441.872-401.714 441.872-401.714c0 0 0 0 0 0" />
<glyph unicode="&#x6d;" glyph-name="whatsapp" d="M521.273 26.396c-88.121 0-170.951 22.528-242.973 62.066 0 0-278.3-88.462-278.3-88.462s90.738 267.662 90.738 267.662c-45.796 75.15-72.135 163.328-72.135 257.536 0 275.513 225.052 498.802 502.67 498.802 277.675 0 502.727-223.289 502.727-498.802 0-275.456-225.052-498.802-502.727-498.802 0 0 0 0 0 0M775.168 410.34c-3.129 5.063-11.321 8.135-23.666 14.279-12.288 6.087-72.931 35.669-84.195 39.765-11.264 4.039-19.513 6.087-27.705-6.144-8.249-12.231-31.858-39.765-39.026-47.9-7.225-8.192-14.393-9.216-26.738-3.072-12.288 6.087-51.996 19-99.043 60.643-36.637 32.427-61.383 72.42-68.551 84.708-7.225 12.174-0.797 18.83 5.404 24.917 5.518 5.461 12.288 14.279 18.489 21.39 6.144 7.168 8.192 12.231 12.288 20.423 4.153 8.135 2.048 15.303-1.024 21.391-3.072 6.144-27.762 66.275-38.002 90.794-10.24 24.462-20.537 20.366-27.705 20.366s-15.417 1.024-23.609 1.024c-8.249 0-21.617-3.072-32.881-15.303-11.321-12.231-43.122-41.813-43.122-101.945 0-60.188 44.146-118.328 50.29-126.464 6.2-8.135 85.219-135.623 210.488-184.547 125.327-48.981 125.327-32.654 147.912-30.606 22.584 2.048 72.874 29.582 83.171 58.083 10.297 28.615 10.297 53.078 7.225 58.198 0 0 0 0 0 0" />
<glyph unicode="&#x6e;" glyph-name="cuotes" d="M671.558 700.036c-65.903-82.646-98.82-176.051-98.82-280.307 0-89.606 24.205-161.014 72.614-214.314 48.431-53.277 105.985-79.915 172.661-79.915 57.166 0 105.78 19.677 145.863 59.078 40.083 39.377 60.124 84.92 60.124 136.673 0 49.409-17.471 92.085-52.39 128.005-34.941 35.897-75.001 53.869-120.248 53.869-38.9 0-71.066-8.895-96.454-26.661-7.939-5.392-13.899-8.099-17.857-8.099-3.981 0-7.553 2.32-10.715 6.961-4.754 6.938-7.143 17.744-7.143 32.417 0 67.949 23.408 133.397 70.247 196.342 46.817 62.922 111.513 109.056 194.090 138.424 0 0 0 56.758 0 56.758-142.109-50.206-246.093-116.609-311.972-199.231 0 0 0 0 0 0M98.842 700.036c-65.902-82.646-98.842-176.051-98.842-280.307 0-89.606 24.204-161.014 72.636-214.314 48.409-53.277 105.985-79.915 172.661-79.915 57.144 0 105.758 19.677 145.863 59.078 40.060 39.377 60.124 84.92 60.124 136.673 0 49.409-17.471 92.085-52.389 128.005-34.942 35.897-75.025 53.869-120.272 53.869-38.9 0-71.043-8.895-96.43-26.661-7.962-5.392-13.9-8.099-17.858-8.099-3.981 0-7.575 2.32-10.737 6.961-4.755 6.938-7.143 17.744-7.143 32.417 0 67.949 23.408 133.397 70.247 196.342 46.839 62.922 111.536 109.056 194.090 138.424 0 0 0 56.758 0 56.758-142.087-50.206-246.070-116.609-311.95-199.231 0 0 0 0 0 0" />
<glyph unicode="&#x6f;" glyph-name="pen" d="M149.197 470.903c0 0-57.174-224.187-149.197-367.104 0 0 35.26-35.225 35.26-35.225s169.267 169.267 169.267 169.267c14.848 14.814 24.303 34.168 26.863 54.955 1.433 11.503 6.519 22.698 15.394 31.573 21.265 21.231 55.706 21.231 76.937 0 21.265-21.299 21.23-55.706 0.034-76.936-8.875-8.943-20.037-13.995-31.574-15.429-20.821-2.594-40.106-12.015-54.954-26.863 0 0-169.302-169.301-169.302-169.301s35.26-35.84 35.26-35.84c141.38 91.034 367.104 149.811 367.104 149.811s181.862 334.37 181.862 334.37c0 0-168.584 168.585-168.584 168.585s-334.37-181.863-334.37-181.863c0 0 0 0 0 0M512.614 744.96c0 0 91.614 169.335 148.276 279.040 0 0 363.11-363.11 363.11-363.11-110.182-56.389-279.723-147.593-279.723-147.593s-231.663 231.663-231.663 231.663c0 0 0 0 0 0" />
<glyph unicode="&#x70;" glyph-name="inst" d="M765.713 1024c0 0-507.324 0-507.324 0-142.54 0-258.389-115.849-258.389-258.389 0 0 0-507.358 0-507.358 0-142.404 115.849-258.253 258.389-258.253 0 0 507.324 0 507.324 0 142.438 0 258.287 115.849 258.287 258.253 0 0 0 507.358 0 507.358 0 142.54-115.849 258.389-258.287 258.389 0 0 0 0 0 0M512 248.252c-145.374 0-263.748 118.238-263.748 263.748 0 145.374 118.374 263.748 263.748 263.748 145.51 0 263.748-118.374 263.748-263.748 0-145.51-118.238-263.748-263.748-263.748 0 0 0 0 0 0M805.615 765.269c-34.406 0-62.396 27.99-62.396 62.396s27.99 62.396 62.396 62.396c34.406 0 62.396-27.99 62.396-62.396s-27.99-62.396-62.396-62.396c0 0 0 0 0 0M512 664.303c-83.934 0-152.303-68.369-152.303-152.303s68.369-152.269 152.303-152.269c83.934 0 152.269 68.335 152.269 152.269s-68.335 152.303-152.269 152.303c0 0 0 0 0 0" />
<glyph unicode="&#x71;" glyph-name="d-down" d="M1024 548.458c0 0-292.557 0-292.557 0s0 433.664 0 433.664c0 0-438.886 0-438.886 0s0-433.664 0-433.664c0 0-292.557 0-292.557 0s512-505.958 512-505.958c0 0 512 505.958 512 505.958s0 0 0 0" />
<glyph unicode="&#x72;" glyph-name="d-up" d="M1024 476.266c0 0-292.557 0-292.557 0s0-433.766 0-433.766c0 0-438.886 0-438.886 0s0 433.766 0 433.766c0 0-292.557 0-292.557 0s512 505.959 512 505.959c0 0 512-505.959 512-505.959s0 0 0 0" />
<glyph unicode="&#x73;" glyph-name="lin" d="M553.92 699.84c0 0-212.032 0-212.032 0s0-667.84 0-667.84c0 0 212.032 0 212.032 0s0 247.68 0 350.592c0 194.88 257.216 210.88 257.216 0 0-96.192 0-350.592 0-350.592s212.864 0 212.864 0c0 0 0 243.968 0 422.848 0 328.896-380.672 316.928-470.080 155.072 0 0 0 89.92 0 89.92s0 0 0 0M213.312 699.84c0 0-213.312 0-213.312 0s0-667.84 0-667.84c0 0 213.312 0 213.312 0s0 667.84 0 667.84c0 0 0 0 0 0M212.48 887.68c0-57.664-47.36-104.384-105.792-104.384s-105.856 46.72-105.856 104.384c0 57.6 47.424 104.32 105.856 104.32s105.792-46.72 105.792-104.32c0 0 0 0 0 0" />
<glyph unicode="&#x74;" glyph-name="futbol" d="M512 1024c-281.6 0-512-230.4-512-512s230.4-512 512-512c281.6 0 512 230.4 512 512s-230.4 512-512 512c0 0 0 0 0 0M858.176 241.536c0 0-9.088 61.376-9.088 61.376s-157.888-34.112-157.888-34.112c0 0-85.312-140.8-85.312-140.8s58.304-27.904 58.304-27.904c-47.488-17.536-98.56-27.584-152.192-27.584-53.568 0-104.704 9.984-152.128 27.584 0 0 58.24 27.904 58.24 27.904s-85.312 140.8-85.312 140.8c0 0-157.888 34.112-157.888 34.112s-9.088-61.376-9.088-61.376c-58.24 74.496-93.312 168.256-93.312 270.464 0 4.8 0.576 9.536 0.704 14.272 0 0 41.984-44.16 41.984-44.16s110.912 123.776 110.912 123.776c0 0-17.024 162.112-17.024 162.112s-62.528-11.52-62.528-11.52c57.408 85.76 144.32 149.76 246.336 178.304 0 0-30.208-55.808-30.208-55.808s149.312-64 149.312-64c0 0 149.312 64 149.312 64s-30.208 55.808-30.208 55.808c101.952-28.544 188.992-92.544 246.336-178.368 0 0-62.528 11.584-62.528 11.584s-17.024-162.112-17.024-162.112c0 0 110.912-123.776 110.912-123.776s41.92 44.16 41.92 44.16c0.128-4.736 0.768-9.472 0.768-14.272 0-102.208-35.072-195.968-93.312-270.464 0 0 0 0 0 0M512 682.688c0 0 179.2-132.288 179.2-132.288s-68.288-209.024-68.288-209.024c0 0-221.888 0-221.888 0s-68.224 209.024-68.224 209.024c0 0 179.2 132.288 179.2 132.288s0 0 0 0" />
<glyph unicode="&#x75;" glyph-name="tenis" d="M697.984 698.356c-97.92 97.984-156.352 216.192-170.496 326.144 125.952-3.904 250.88-53.568 346.944-149.696s145.856-220.928 149.568-346.88c-110.016 14.208-228.096 72.512-326.016 170.432 0 0 0 0 0 0M1022.016 464.5c-10.624-114.688-59.84-226.624-147.712-314.432-87.936-87.744-199.552-137.024-314.432-147.648-14.464 125.632-78.848 259.456-188.672 369.28-109.76 109.824-243.584 174.144-369.344 188.672 10.688 114.688 59.904 226.56 147.84 314.304 87.872 87.872 199.68 137.152 314.24 147.84 14.656-125.76 79.040-259.584 188.8-369.408 109.824-109.824 243.776-174.080 369.28-188.608 0 0 0 0 0 0M496.448 0.5c-125.952 3.712-250.752 53.568-346.752 149.632-96.128 96.064-146.048 220.928-149.696 346.816 109.952-14.272 228.096-72.576 325.952-170.496 97.984-97.92 156.352-216.064 170.496-325.952 0 0 0 0 0 0" />
<glyph unicode="&#x76;" glyph-name="basket" d="M807.988 700.032c-34.048-3.84-62.528-10.304-86.72-19.456-16.576 24.256-34.688 47.104-54.656 68.032-5.44 5.76-10.816 11.328-16.32 16.768 52.224 32.832 96.192 55.232 123.776 63.424 42.048 12.608 83.328 20.096 120.384 24.576 67.84-75.712 113.344-171.712 126.464-277.824-61.248 70.016-132.608 133.568-212.928 124.48 0 0 0 0 0 0M611.828 801.984c-22.336 20.352-44.736 39.040-66.752 56.192 22.528 20.16 39.808 38.72 50.048 52.288 21.504 28.48 20.608 67.776 18.688 103.552 88.64-17.728 168.96-58.432 234.688-115.52-28.416-4.864-58.432-11.456-89.088-20.608-34.048-10.176-86.592-37.056-147.584-75.904 0 0 0 0 0 0M503.156 889.408c-69.12 49.088-131.328 82.304-171.52 101.568 56.32 21.312 117.376 33.024 181.12 33.024 16.64 0 33.088-0.832 49.344-2.368 0.064-1.28 0.128-2.432 0.192-3.712 1.6-28.736 3.52-61.248-8.064-76.608-9.728-12.864-27.52-31.616-51.072-51.904 0 0 0 0 0 0M296.244 780.288c-20.608-4.288-41.92-8.256-62.592-12.096-63.808-11.84-128.832-24-188.8-47.872 46.144 103.424 125.504 188.8 224.64 242.368 15.872-6.528 95.616-40.64 191.168-106.432-45.824-32.512-103.232-63.232-164.416-75.968 0 0 0 0 0 0M306.676 730.176c75.392 15.68 144.704 54.784 197.632 94.592 20.864-15.872 42.176-33.216 63.424-51.968-63.68-43.776-133.376-98.304-199.296-159.040-110.016-101.312-238.592-245.888-276.032-394.176-57.856 82.944-91.904 183.68-91.904 292.416 0 48.64 6.912 95.616 19.584 140.16 65.024 36.288 142.336 50.752 222.912 65.728 20.928 3.84 42.56 7.872 63.68 12.288 0 0 0 0 0 0M606.452 736.704c7.744-7.616 15.424-15.36 23.104-23.36 16.448-17.344 31.68-36.352 45.824-56.704-47.168-33.28-71.488-84.544-92.48-155.648-8.448-28.544-18.688-72.576-30.528-123.584-24.704-106.112-66.24-284.608-110.336-372.416-121.216 16.768-228.8 75.712-307.456 161.728 23.552 204.864 282.688 441.28 471.872 569.984 0 0 0 0 0 0M632.052 486.464c18.24 61.824 36.608 101.696 70.656 126.976 87.936-152.768 122.816-358.528 126.272-504.064-87.104-68.416-196.864-109.376-316.224-109.376-5.504 0-11.008 0.256-16.448 0.448 38.528 84.608 71.488 217.216 105.984 365.44 11.648 50.176 21.76 93.504 29.76 120.576 0 0 0 0 0 0M813.748 649.152c72.576 8.192 151.296-84.608 210.752-157.632-5.184-131.52-59.968-250.24-146.176-338.048-8.32 139.008-42.24 330.944-129.344 482.88 18.24 5.824 39.552 9.92 64.768 12.8 0 0 0 0 0 0" />
<glyph unicode="&#x77;" glyph-name="rugby" d="M873.11 971.594c-85.504 17.43-369.807 52.534-636.558-172.593 0 0-243.47-200.322-236.401-545.691 0 0 3.961-133.65 38.882-157.661 0 0 238.473-168.51 665.446 80.933 12.493 7.313 103.177 66.794 179.418 154.31 60.822 69.719 206.173 347.928 105.616 553.187 0 0-22.61 51.558-65.637 73.193-12.92 6.521-36.383 11.397-50.766 14.322 0 0 0 0 0 0M910.042 880.788c1.158-246.823-172.654-448.851-172.654-448.851-151.323-200.749-473.35-271.871-567.143-288.752-14.383-2.56-25.718 7.252-24.682 21.452 13.347 183.136 81.908 303.378 112.99 349.269 8.044 11.945 27.242 18.039 37.541 7.923 9.751-9.629 19.624-22.915 27.181-34.129 8.106-11.884 19.38-11.762 26.145 0.853 0 0 20.355 37.907 20.355 37.907 6.765 12.616 6.521 33.032-3.778 43.088-5.668 5.546-12.006 11.274-17.918 16.333-10.97 9.507-13.346 26.144-3.717 36.871 3.839 4.205 7.983 8.654 11.884 12.859 9.812 10.543 28.887 14.748 40.405 5.972 3.474-2.62 7.009-5.485 10.361-8.227 11.214-9.142 27.181-7.801 36.079 3.535 0 0 10.97 13.956 10.97 13.956 8.897 11.274 7.13 28.034-5.181 35.835-0.061 0-0.122 0.061-0.183 0.122-12.31 7.739-14.078 21.696-2.559 30.532 4.875 3.779 10.116 7.74 15.053 11.458 11.64 8.715 31.691 12.493 42.051 3.839 10.422-8.715 25.962-9.507 35.835-0.731 9.873 8.837 9.69 19.685 1.158 26.51-8.654 6.826-5.851 20.112 6.521 27.73 2.072 1.341 4.205 2.621 6.277 3.9 12.433 7.557 31.508 10.97 40.955 4.876 9.446-6.095 24.438-5.607 34.067 1.828 9.69 7.496 12.189 14.505 6.46 17.613-5.729 3.047-1.463 12.189 10.665 17.247 12.067 5.058 25.78 4.754 31.021 0.731 5.18-3.961 15.297-3.595 22.366 0.61 7.009 4.144 8.776 7.983 4.388 9.995-4.388 1.95 2.194 10.238 15.541 15.967 6.155 2.681 12.798 5.302 18.892 7.74 13.591 5.302 12.92 8.044-1.462 5.424-10.544-1.89-21.94-4.205-31.752-6.278-14.322-2.986-29.192-2.986-33.885-0.853s-13.225 1.768-18.831-0.304c-5.607-2.073-6.643-4.693-3.048-7.314 3.535-2.62-5.485-7.618-19.502-11.64-3.656-0.975-7.374-2.072-10.97-3.108-14.078-4.144-30.045-4.083-36.688-1.28-6.582 2.803-23.037-0.305-36.383-6.216 0 0-1.707-0.792-1.707-0.792-13.346-5.912-17.064-11.153-8.958-14.261 8.166-3.048 3.412-10.239-9.995-16.029-5.363-2.315-11.031-4.814-16.333-7.13-13.347-5.912-33.885-8.105-46.317-6.643-12.372 1.402-30.838-3.474-41.137-10.238-10.361-6.765-9.142-10.605 2.559-12.189s11.275-10.604-0.731-18.771c0 0-30.106-20.538-30.106-20.538-11.945-8.227-32.422-11.214-46.318-10.056s-34.189-6.521-45.281-15.784c0 0-14.017-11.762-14.017-11.762-11.092-9.325-8.349-14.627 6.094-16.272 14.444-1.646 17.857-12.616 7.801-22.976 0 0-11.031-11.397-11.031-11.397-10.055-10.299-28.765-14.809-42.599-13.773-13.835 0.975-32.849-7.923-42.417-18.771 0 0-25.048-28.338-25.048-28.338-9.507-10.787-5.729-16.455 8.837-16.516 14.565 0 17.917-10.97 8.958-22.184-46.926-58.567-103.543-167.23-127.372-214.705-6.399-12.798-10.604-11.762-9.020 2.377 36.566 329.828 261.144 464.209 261.144 464.209 265.533 183.928 489.44 143.34 562.39 122.375 14.017-4.022 25.718-19.928 25.779-34.128 0 0 0 0 0 0" />
<glyph unicode="&#x78;" glyph-name="shrink" d="M983.053 576.829c0 0-157.489 124.747-157.489 124.747s198.436 187.768 198.436 187.768c0 0-131.020 128.207-131.020 128.207s-192.11-194.379-192.11-194.379c0 0-130.541 157.502-130.541 157.502s0-403.845 0-403.845c0 0 412.724 0 412.724 0s0 0 0 0M127.741 6.5c0 0 187.171 193.575 187.171 193.575s125.797-155.246 125.797-155.246c0 0 0 402.38 0 402.38s-402.393 0-402.393 0c0 0 155.246-125.784 155.246-125.784s-193.562-187.184-193.562-187.184c0 0 127.741-127.741 127.741-127.741s0 0 0 0" />
<glyph unicode="&#x79;" glyph-name="saved" d="M512.368 212.938c0 0-323.368-212.938-323.368-212.938s0 1024 0 1024c0 0 646.737 0 646.737 0s0-1024 0-1024c0 0-323.369 212.938-323.369 212.938s0 0 0 0M647.267 808.259c0 0-178.014-241.718-178.014-241.718s-113.664 76.639-113.664 76.639c0 0-58.8-77.878-58.8-77.878s194.075-134.036 194.075-134.036c0 0 236.868 319.595 236.868 319.595s-80.465 57.398-80.465 57.398c0 0 0 0 0 0" />
<glyph unicode="&#x7a;" glyph-name="check-free" d="M865.472 928c0 0-481.472-506.496-481.472-506.496s-225.536 219.456-225.536 219.456c0 0-158.464-162.752-158.464-162.752s384-382.208 384-382.208c0 0 640 669.312 640 669.312s-158.528 162.688-158.528 162.688c0 0 0 0 0 0" />
<glyph unicode="&#x7b;" glyph-name="star" d="M512.223 1024c0 0 156.416-339.528 156.416-339.528s355.307-51.599 355.307-51.599c0 0-258.591-261.49-258.591-261.49s63.113-371.383 63.113-371.383c0 0-316.245 177.909-316.245 177.909s-316.288-177.909-316.288-177.909c0 0 63.156 371.383 63.156 371.383s-258.591 261.49-258.591 261.49c0 0 355.264 51.599 355.264 51.599s156.459 339.528 156.459 339.528c0 0 0 0 0 0" />
<glyph unicode="&#x7c;" glyph-name="help" d="M625.254 725.22c-25.942 26.282-64.626 40.789-108.829 40.789-93.013 0-153.201-66.162-153.201-168.562 0 0 85.788 0 85.788 0 0 63.374 35.385 85.845 65.65 85.845 27.022 0 55.751-17.92 58.197-52.28 2.674-36.125-16.611-54.5-41.017-77.711-60.245-57.287-61.383-85.049-61.098-147.968 0 0 85.56 0 85.56 0-0.568 28.331 1.252 51.314 39.88 92.9 28.842 31.175 64.796 69.916 65.536 128.967 0.455 39.481-12.118 73.387-36.466 98.020 0 0 0 0 0 0M565.805 298.667c0-29.469-23.78-53.362-53.305-53.362-29.412 0-53.362 23.893-53.362 53.362s23.95 53.361 53.362 53.361c29.525 0 53.305-23.893 53.305-53.361 0 0 0 0 0 0M512.5 1024c-282.738 0-512-229.205-512-512s229.262-512 512-512c282.738 0 512 229.205 512 512s-229.262 512-512 512c0 0 0 0 0 0M512.5 938.667c235.236 0 426.667-191.375 426.667-426.667s-191.431-426.667-426.667-426.667c-235.236 0-426.667 191.375-426.667 426.667s191.431 426.667 426.667 426.667c0 0 0 0 0 0" />
<glyph unicode="&#x7d;" glyph-name="medal" d="M819.4 714.056c0-171.131-137.585-309.945-307.2-309.945-169.656 0-307.2 138.814-307.2 309.945 0 171.172 137.544 309.944 307.2 309.944 169.615 0 307.2-138.772 307.2-309.944 0 0 0 0 0 0M588.304 690.627c0 0 77.783 71.925 77.783 71.925s-106.865 14.172-106.865 14.172c0 0-47.022 93.348-47.022 93.348s-47.022-93.348-47.022-93.348c0 0-106.865-14.172-106.865-14.172s77.783-71.925 77.783-71.925c0 0-19.005-102.155-19.005-102.155s95.109 48.948 95.109 48.948c0 0 95.109-48.948 95.109-48.948s-19.005 102.155-19.005 102.155c0 0 0 0 0 0M512.2 328.622c63.078 0 122.552 15.401 175.555 42.025 0 0 0-370.647 0-370.647s-173.712 94.208-173.712 94.208c0 0-177.398-94.208-177.398-94.208s0 370.647 0 370.647c52.962-26.624 112.436-42.025 175.555-42.025 0 0 0 0 0 0" />
<glyph unicode="&#x7e;" glyph-name="trend" d="M134.157 103c0 0-133.657 105.544-133.657 105.544s318.543 425.851 318.543 425.851c0 0 238.466-190.911 238.466-190.911s188.315 251.544 188.315 251.544c0 0-141.003 113.968-141.003 113.968s416.789 112.646 416.789 112.646c0 0 2.89-451.563 2.89-451.563s-147.174 118.474-147.174 118.474c0 0-289.304-387.11-289.304-387.11s-237.83 190.371-237.83 190.371c0 0-216.035-288.814-216.035-288.814s0 0 0 0" />
<glyph unicode="&#x1f417;" glyph-name="map-marker-alt" horiz-adv-x="768" d="M384 832c-105.87 0-192-86.13-192-192s86.13-192 192-192 192 86.13 192 192-86.13 192-192 192zM384 512c-70.58 0-128 57.42-128 128s57.42 128 128 128 128-57.42 128-128-57.42-128-128-128zM384 1024c-212.078 0-384-171.922-384-384 0-154.826 53.94-198.062 344.536-619.34 19.068-27.544 59.858-27.548 78.93 0 290.594 421.278 344.534 464.514 344.534 619.34 0 212.078-171.922 384-384 384zM384 76.138c-278.59 402.886-320 434.874-320 563.862 0 85.476 33.286 165.834 93.726 226.274s140.798 93.726 226.274 93.726 165.834-33.286 226.274-93.726 93.726-140.798 93.726-226.274c0-128.98-41.384-160.94-320-563.862z" />
<glyph unicode="&#x1f418;" glyph-name="address-card" horiz-adv-x="1152" d="M1024 960h-896c-70.6 0-128-57.4-128-128v-640c0-70.6 57.4-128 128-128h896c70.6 0 128 57.4 128 128v640c0 70.6-57.4 128-128 128zM1088 192c0-35.2-28.8-64-64-64h-896c-35.2 0-64 28.8-64 64v640c0 35.2 28.8 64 64 64h896c35.2 0 64-28.8 64-64v-640zM944 448h-224c-8.8 0-16-7.2-16-16v-32c0-8.8 7.2-16 16-16h224c8.8 0 16 7.2 16 16v32c0 8.8-7.2 16-16 16zM944 576h-224c-8.8 0-16-7.2-16-16v-32c0-8.8 7.2-16 16-16h224c8.8 0 16 7.2 16 16v32c0 8.8-7.2 16-16 16zM944 704h-224c-8.8 0-16-7.2-16-16v-32c0-8.8 7.2-16 16-16h224c8.8 0 16 7.2 16 16v32c0 8.8-7.2 16-16 16zM416 448c88.4 0 160 71.6 160 160s-71.6 160-160 160-160-71.6-160-160 71.6-160 160-160zM416 704c53 0 96-43 96-96s-43-96-96-96-96 43-96 96 43 96 96 96zM509.6 416c-39 0-48.8-14-93.6-14s-54.6 14-93.6 14c-42.4 0-83.6-18.8-107.6-54.8-14.4-21.4-22.8-47.2-22.8-75v-46.2c0-8.8 7.2-16 16-16h32c8.8 0 16 7.2 16 16v46.2c0 14 4.2 27.6 12 39.2 11.2 16.6 31.6 26.4 54.6 26.4 24.8 0 41.6-14 93.6-14 51.8 0 68.6 14 93.6 14 23 0 43.4-10 54.6-26.4 7.8-11.6 12-25.2 12-39.2v-46.2c0-8.8 7.2-16 16-16h32c8.8 0 16 7.2 16 16v46.2c0 27.8-8.4 53.6-22.8 75-24.6 36-65.8 54.8-108 54.8z" />
<glyph unicode="&#x1f419;" glyph-name="comment" d="M512 896c247 0 448-158 448-352s-201-352-448-352c-56.6 0-112.6 8.6-166.4 25.6l-30.4 9.6-26-18.4c-46-32.6-117-70.6-205.2-79.2 24 30.2 59.6 80.8 81.6 139.2l14.2 37.4-27.4 29.2c-57.8 61.2-88.4 133.4-88.4 208.6 0 194 201 352 448 352zM512 960c-282.8 0-512-186.2-512-416 0-95.2 39.8-182.4 105.8-252.6-29.8-78.8-91.8-145.6-92.8-146.4-13.2-14-16.8-34.4-9.2-52s24.8-29 44-29c123 0 220 51.4 278.2 92.6 58-18.2 120.4-28.6 186-28.6 282.8 0 512 186.2 512 416s-229.2 416-512 416z" />
</font>
</defs>
</svg>
